Большой бой Астерикса / Astérix et le Coup du Menhir (Филипп Гримон / Philippe Grimond) [1989, Франция, мультфильм, комедия, приключения, семейный, BDRip] MVO (Новый Канал) 

Цитировать
Большой бой Астерикса / Astérix et le Coup du Menhir
Страна: Франция
Жанр: мультфильм, комедия, приключения, семейный
Продолжительность: 01:19:58
Год выпуска: 1989
Перевод: Профессиональный (многоголосый закадровый) Новый Канал
Русские субтитры: нет
Режиссёр: Филипп Гримон / Philippe Grimond
Описание: Как известно, настоящему галлу все нипочем. Он и в огне не горит, и в воде не тонет. Но на этот раз даже Астериксу приходится несладко: ведь на его деревню обрушивается ураган невиданной силы. Помочь нашему герою может только друид Починикс, на которого, как назло, только что свалился огромный валун. Бедняга никого не узнает…Обо всем этом становится известно Юлию Цезарю — а уж он спит и видит, кого бы еще завоевать. Впереди большой бой — и наши веселые герои выходят на него с открытым забралом.
Доп. информация: Старая многоголосая озвучка с украинского ТВ. Транслировалась по нескольким телеканалам, таким как Новый Канал, ТРК Украина и ICTV в период с 2001 по 2006 год.
Запись и оцифровка: German37
Синхронизация и релиз: nLboOm
К сожалению, телевизионщики как-то умудрились накосячить во время озвучивания, в результате чего оригинальная французская дорожка стала отдавать эхом, но голоса русскоязычного закадра при этом звучат нормально. Не могу сказать, был ли на ТВ когда-то показан исправленный вариант озвучки.
Семпл: http://cloud.mail.ru/public/J7vt/dWgnuivNJ
Качество: BDRip. Видео взял отсюда
Формат: AVI
Видео: 720x384 (1.88:1), 23.976 fps, XviD build 65 ~2397 kbps avg, 0.36 bit/pixel
Аудио: AC3 Dolby Digital, 48 kHz, 2 ch,192 kbps avg RUS
Субтитры: Отсутствуют

Подробные технические данные

General
Complete name : E:\Utorrent_Files\Bolshoj.boj.Asteriksa.(BDRip).avi
Format : AVI
Format/Info : Audio Video Interleave
File size : 1.45 GiB
Duration : 1 h 19 min
Overall bit rate : 2 599 kb/s
Writing application : VirtualDubMod 1.5.10.2 (build 2540/release)
Writing library : VirtualDubMod build 2540/release
Video
ID : 0
Format : MPEG-4 Visual
Format profile : Advanced Simple@L5
Format settings, BVOP : 1
Format settings, QPel : No
Format settings, GMC : No warppoints
Format settings, Matrix : Default (H.263)
Codec ID : XVID
Codec ID/Hint : XviD
Duration : 1 h 19 min
Bit rate : 2 397 kb/s
Width : 720 pixels
Height : 384 pixels
Display aspect ratio : 1.85:1
Frame rate : 23.976 (24000/1001) FPS
Color space : YUV
Chroma subsampling : 4:2:0
Bit depth : 8 bits
Scan type : Progressive
Compression mode : Lossy
Bits/(Pixel*Frame) : 0.362
Stream size : 1.34 GiB (92%)
Writing library : XviD 65
Audio
ID : 1
Format : AC-3
Format/Info : Audio Coding 3
Format settings, Endianness : Big
Codec ID : 2000
Duration : 1 h 19 min
Bit rate mode : Constant
Bit rate : 192 kb/s
Channel(s) : 2 channels
Channel positions : Front: L R
Sampling rate : 48.0 kHz
Frame rate : 31.250 FPS (1536 SPF)
Bit depth : 16 bits
Compression mode : Lossy
Stream size : 110 MiB (7%)
Alignment : Split accross interleaves
Interleave, duration : 42 ms (1.00 video frame)
Interleave, preload duratio : 500 ms
Service kind : Complete Main

Скриншоты

Вы не можете начинать темы
Вы не можете отвечать на сообщения
Вы не можете редактировать свои сообщения
Вы не можете удалять свои сообщения
Вы не можете голосовать в опросах
Вы не можете прикреплять файлы к сообщениям
Вы можете скачивать файлы
!ВНИМАНИЕ!

Сайт не предоставляет электронные версии произведений, а занимается лишь коллекционированием и каталогизацией ссылок, присылаемых и публикуемых на форуме нашими читателями. Если вы являетесь правообладателем какого-либо представленного материала и не желаете, чтобы ссылка на него находилась в нашем каталоге, свяжитесь с нами, и мы незамедлительно удалим ее. Файлы для обмена на трекере предоставлены пользователями сайта, и администрация не несет ответственности за их содержание. Просьба не заливать файлы, защищенные авторскими правами, а также файлы нелегального содержания!

Искали программы, игры, дополнения, музыка mp3, аниме, аудио книги, журналы? Добро пожаловать на свободный торрент трекер Torrents, у нас можно скачать бесплатно, без смс и регистрации и прочих ограничений лучшие, отборные сборки программ, игр. Скачать торрентом не составит труда даже не опытному пользователю. Раздачи ежедневно обновляются, только лучшие и качественные раздачи, подробные описания и скриншоты. Огромная коллекция программ для работы со звуком, графикой, дизайном, а так же множество плагинов и инструментов к ним с подробной инструкцией и рекомендациями. Прошивки для навигаторов, карты. Разнообразные игры, для Windows, Linux. В коллекцие есть и старые игры любых жанров, Rpg, Action, Shooter, strategy Множество дополнений, модификаций, сценариев для популярных игр в жанре экш, рпг, гонки, стратегии, логические игры. Множество аддонов и сценариев для Microsoft Flight Simulator Большая коллекция книг, учебников. Если нет возможности купить печатное издание - смело скачивайте цифровую версию книги или, быть может, журнала. Не любите читать - можно загрузить бесплатно аудикнигу. Для веб дизайнеров и программистов так же найдется множество специализированного софта, таких как: редакторы с подсветкой, среды программирования, компоненты, системы управления базами данных, разнообразные скрипты и шаблоны. Не так давно у нас появился материал для автолюбителей и владельцев мото - оригинальные и неоригинальные каталоги запчастей, книги и журналы по ремонту и обслуживанию, видеоуроки, статьи по чип тюнингу, прошивкам. Процедура получения контента элементарная, достаточно просто скачать торрент файл и добавить его в загрузку в вашем торрент клиенте. Если у вас нет специального торрент клиента, вы можете его скачать у нас.