Дорога на Эльдорадо / The Road to El Dorado (Бибо Бержерон, Дон Пол, Джеффри Катценберг / Bibo Bergeron, Don Paul, Jeffrey Katzenberg) [2000, США, мультфильм, мелодрама, комедия, приключения, семейный, WEB-DLRip] DUB (Пифагор) + ENG + SUBs (RUS, ENG) 

Цитировать
Дорога на Эльдорадо : The Road to El Dorado Страна: США
Жанр: мультфильм, мелодрама, комедия, приключения, семейный
Продолжительность: 01:29:26
Год выпуска: 2000
Перевод:
- Профессиональный (дублированный) - Пифагор
Субтитры: русские (Премьер Мультимедиа), английские-Режиссёры: Бибо Бержерон : Bibo Bergeron, Дон Пол : Don Paul, Джеффри Катценберг : Jeffrey Katzenberg.
В ролях: Кевин Клайн, Кеннет Брэна, Рози Перес, Арманд Ассанте, Эдвард Джеймс Олмос, Джим Каммингс, Фрэнк Уэлкер, Тобин Белл...-Описание: Тульо и Мигель, герои этой полнометражной мультипликационной картины, предпочитают не зарабатывать деньги тяжелым трудом. Эти два отпетых мошенника обожают, когда золотишко само идет к ним в руки. Случилось так, что этим проходимцам крупно повезло.
Им посчастливилось найти таинственную карту, на которой обозначен величественный Город Золота, мифический Эльдорадо. Вместе со знаменитым конкистадором Эрнаном Кортесом приятели отправляются в рискованное путешествием за сокровищами к берегам далекой Америки.
-За предоставление Пифагор-овского дубляжа большое спасибо Plazik.

Семпл: http://www.sendspace.com/file/2wnkfy-Качество: WEB-DLRip
Формат: AVI
Видео: XviD 65, 704x396 (16:9), 23,976 fps, ~1869 kbps, 0.280 bit/pixel
Аудио #1: [RUS] 48 kHz, AC3 Dolby Digital, 6 ch, 384 kbps - DUB
Аудио #2: [ENG] 48 kHz, EAC3, 6 ch, 448 kbps - Original (отдельно)

Mediainfo

Общее
Полное имя : I:\The.Road.to.El.Dorado.2000.WEB-DLRip\The.Road.to.El.Dorado.2000.WEB-DLRip.avi
Формат : AVI
Формат/Информация : Audio Video Interleave
Размер файла : 1,41 Гбайт
Продолжительность : 1 ч. 29 м.
Общий поток : 2263 Кбит/сек
Название фильма : The Road to El Dorado (2000)
Программа кодирования : VirtualDubMod 1.5.10.2 (build 2540/release)
Библиотека кодирования : VirtualDubMod build 2540/release
Видео
Идентификатор : 0
Формат : MPEG-4 Visual
Профиль формата : Advanced Simple@L5
Параметр BVOP формата : Нет
Параметр QPel формата : Нет
Параметр GMC формата : Без точки перехода
Параметр матрицы формата : Default (H.263)
Идентификатор кодека : XVID
Идентификатор кодека/Подсказка : XviD
Продолжительность : 1 ч. 29 м.
Битрейт : 1869 Кбит/сек
Ширина : 704 пикселя
Высота : 396 пикселей
Соотношение сторон : 16:9
Частота кадров : 23,976 (24000/1001) кадра/сек
Цветовое пространство : YUV
Субдискретизация насыщенности : 4:2:0
Битовая глубина : 8 бит
Тип развёртки : Прогрессивная
Метод сжатия : С потерями
Бит/(Пиксели*Кадры) : 0.280
Размер потока : 1,17 Гбайт (83%)
Библиотека кодирования : XviD 65
Аудио
Идентификатор : 1
Формат : AC-3
Формат/Информация : Audio Coding 3
Параметр Endianness формата : Big
Идентификатор кодека : 2000
Продолжительность : 1 ч. 29 м.
Вид битрейта : Постоянный
Битрейт : 384 Кбит/сек
Каналы : 6 каналов
Расположение каналов : Front: L C R, Side: L R, LFE
Частота : 48,0 КГц
Частота кадров : 31,250 кадров/сек (1536 spf)
Битовая глубина : 16 бит
Метод сжатия : С потерями
Размер потока : 246 Мбайт (17%)
Выравнивание : Разделение по промежуткам
Продолжительность промежутка : 42 мс. (1,00 видеокадр)
Время предзагрузки промежутка : 500 мс.
ServiceKind/String : Complete Main

Скриншоты

Вы не можете начинать темы
Вы не можете отвечать на сообщения
Вы не можете редактировать свои сообщения
Вы не можете удалять свои сообщения
Вы не можете голосовать в опросах
Вы не можете прикреплять файлы к сообщениям
Вы можете скачивать файлы
!ВНИМАНИЕ!

Сайт не предоставляет электронные версии произведений, а занимается лишь коллекционированием и каталогизацией ссылок, присылаемых и публикуемых на форуме нашими читателями. Если вы являетесь правообладателем какого-либо представленного материала и не желаете, чтобы ссылка на него находилась в нашем каталоге, свяжитесь с нами, и мы незамедлительно удалим ее. Файлы для обмена на трекере предоставлены пользователями сайта, и администрация не несет ответственности за их содержание. Просьба не заливать файлы, защищенные авторскими правами, а также файлы нелегального содержания!

Искали программы, игры, дополнения, музыка mp3, аниме, аудио книги, журналы? Добро пожаловать на свободный торрент трекер Torrents, у нас можно скачать бесплатно, без смс и регистрации и прочих ограничений лучшие, отборные сборки программ, игр. Скачать торрентом не составит труда даже не опытному пользователю. Раздачи ежедневно обновляются, только лучшие и качественные раздачи, подробные описания и скриншоты. Огромная коллекция программ для работы со звуком, графикой, дизайном, а так же множество плагинов и инструментов к ним с подробной инструкцией и рекомендациями. Прошивки для навигаторов, карты. Разнообразные игры, для Windows, Linux. В коллекцие есть и старые игры любых жанров, Rpg, Action, Shooter, strategy Множество дополнений, модификаций, сценариев для популярных игр в жанре экш, рпг, гонки, стратегии, логические игры. Множество аддонов и сценариев для Microsoft Flight Simulator Большая коллекция книг, учебников. Если нет возможности купить печатное издание - смело скачивайте цифровую версию книги или, быть может, журнала. Не любите читать - можно загрузить бесплатно аудикнигу. Для веб дизайнеров и программистов так же найдется множество специализированного софта, таких как: редакторы с подсветкой, среды программирования, компоненты, системы управления базами данных, разнообразные скрипты и шаблоны. Не так давно у нас появился материал для автолюбителей и владельцев мото - оригинальные и неоригинальные каталоги запчастей, книги и журналы по ремонту и обслуживанию, видеоуроки, статьи по чип тюнингу, прошивкам. Процедура получения контента элементарная, достаточно просто скачать торрент файл и добавить его в загрузку в вашем торрент клиенте. Если у вас нет специального торрент клиента, вы можете его скачать у нас.