Барток Великолепный / Bartok the Magnificent (Дон Блут / Don Bluth, Гари Голдман / Gary Goldman) [1999, США, Мультфильм, семейный, DVDRip] Dub (Первый канал) + MVO (1+1 Ukr) + AVO (Живов) + MVO (R5) + Original Eng 

Цитировать
Барток Великолепный / Bartok the Magnificent
Страна: США
Жанр: Мультфильм, семейный
Год выпуска: 1999
Продолжительность: 01:05:20
Перевод: Профессиональный (дублированный) Первый канал
Перевод: Профессиональный (многоголосый закадровый) 1 1
Перевод: Авторский (одноголосый закадровый) Живов
Перевод: Профессиональный (многоголосый закадровый) R5
Субтитры: Нет
Оригинальная аудиодорожка: Английский
Режиссер: Дон Блут / Don Bluth, Гари Голдман / Gary Goldman
В ролях: Хэнк Азария, Келси Грэммер, Андреа Мартин, Кэтрин О’Хара, Тим Карри, Дженнифер Тилли, Филлип Ван Дайк, Дидрих Бадер, Келли Мари Бергер, Тед Брунетти.
Описание: Барток - любитель уличных представлений. Он может всем и всегда рассказывать, какой он герой, хотя на самом деле он просто трусливый хвастунишка, и когда приходится доказывать свою храбрость на деле - он трусит. Но когда молодого царевича Ивана похищают, нужен настоящий герой, чтобы победить злую Бабу-ягу и не допустить злую регентшу Людмилу на российский трон. И вот Бартоку приходится самому браться за спасение наследника и найти в себе мужество довести его до конца.
Доп. информация: К исходнику Добавлен дубляж, многоголосый украинский, авторский.
За авторский перевод и оцифровку с личной видеокассеты большое спасибо xfiles.
Сэмпл: http://multi-up.com/1057222, http:// СПАМ
Качество видео: DVDRip
Формат видео: AVI
Видео: 720x544 (1.32:1), 25 fps, XviD build 47 ~2346 kbps
Аудио: 48 kHz, AC3 Dolby Digital, 2/0 (L,R) ch, ~192 kbps - Russian (Первый канал)
Аудио: 48 kHz, AC3 Dolby Digital, 2/0 (L,R) ch, ~192 kbps - Ukrainian (1 1)
Аудио: 48 kHz, AC3 Dolby Digital, 2/0 (L,R) ch, ~192 kbps - English
Аудио: 48 kHz, AC3 Dolby Digital, 2/0 (L,R) ch, ~192 kbps - Многоголосый R5 Отдельно
Аудио: 48 kHz, AC3 Dolby Digital, 2/0 (L,R) ch, ~192 kbps - Живов Отдельно
Торрент обновлён 03/01/2017. Добавлена авторская звуковая дорожка.

MediaInfo

Общее
Полное имя : E:\Барток Великолепный Bartok the Magnificent 1999\Барток Великолепный (Bartok the Magnificent) [1999] MVO.ac3
Формат : AC-3
Формат/Информация : Audio Coding 3
Размер файла : 89,7 Мбайт
Продолжительность : 1 ч. 5 м.
Режим общего битрейта : Постоянный
Общий поток : 192 Кбит/сек
Аудио
Формат : AC-3
Формат/Информация : Audio Coding 3
Расширение режима : CM (complete main)
Параметр Endianness формата : Big
Продолжительность : 1 ч. 5 м.
Вид битрейта : Постоянный
Битрейт : 192 Кбит/сек
Каналы : 2 канала
Расположение каналов : Front: L R
Частота : 48,0 КГц
Частота кадров : 31,250 кадров/сек (1536 spf)
Битовая глубина : 16 бит
Метод сжатия : С потерями
Размер потока : 89,7 Мбайт (100%)
Общее
Полное имя : E:\Барток Великолепный Bartok the Magnificent 1999\Барток Великолепный (Bartok the Magnificent) [1999] Живов.ac3
Формат : AC-3
Формат/Информация : Audio Coding 3
Размер файла : 89,7 Мбайт
Продолжительность : 1 ч. 5 м.
Режим общего битрейта : Постоянный
Общий поток : 192 Кбит/сек
Аудио
Формат : AC-3
Формат/Информация : Audio Coding 3
Расширение режима : CM (complete main)
Параметр Endianness формата : Big
Продолжительность : 1 ч. 5 м.
Вид битрейта : Постоянный
Битрейт : 192 Кбит/сек
Каналы : 2 канала
Расположение каналов : Front: L R
Частота : 48,0 КГц
Частота кадров : 31,250 кадров/сек (1536 spf)
Битовая глубина : 16 бит
Метод сжатия : С потерями
Размер потока : 89,7 Мбайт (100%)
Общее
Полное имя : E:\Барток Великолепный Bartok the Magnificent 1999\Барток Великолепный (Bartok the Magnificent) [1999].avi
Формат : AVI
Формат/Информация : Audio Video Interleave
Размер файла : 1,34 Гбайт
Продолжительность : 1 ч. 5 м.
Общий поток : 2944 Кбит/сек
Программа кодирования : VirtualDubMod 1.5.4.1 (build 2178/release)
Видео
Идентификатор : 0
Формат : MPEG-4 Visual
Профиль формата : Advanced Simple@L5
Параметр BVOP формата : 1
Параметр QPel формата : Нет
Параметр GMC формата : Без точки перехода
Параметр матрицы формата : Выборочная
Идентификатор кодека : XVID
Идентификатор кодека/Подсказка : XviD
Продолжительность : 1 ч. 5 м.
Битрейт : 2238 Кбит/сек
Ширина : 720 пикселей
Высота : 544 пикселя
Соотношение сторон : 4:3
Частота кадров : 25,000 кадров/сек
Цветовое пространство : YUV
Субдискретизация насыщенности : 4:2:0
Битовая глубина : 8 бит
Тип развёртки : Прогрессивная
Метод сжатия : С потерями
Бит/(Пиксели*Кадры) : 0.229
Размер потока : 1,02 Гбайт (76%)
Библиотека кодирования : XviD 1.2.0.dev47 (UTC 2006-11-01)
Аудио #1
Идентификатор : 1
Формат : AC-3
Формат/Информация : Audio Coding 3
Расширение режима : CM (complete main)
Параметр Endianness формата : Big
Идентификатор кодека : 2000
Продолжительность : 1 ч. 5 м.
Вид битрейта : Постоянный
Битрейт : 192 Кбит/сек
Каналы : 2 канала
Расположение каналов : Front: L R
Частота : 48,0 КГц
Частота кадров : 31,250 кадров/сек (1536 spf)
Битовая глубина : 16 бит
Метод сжатия : С потерями
Размер потока : 89,7 Мбайт (7%)
Выравнивание : Разделение по промежуткам
Заголовок : Russian
Аудио #2
Идентификатор : 2
Формат : AC-3
Формат/Информация : Audio Coding 3
Расширение режима : CM (complete main)
Параметр Endianness формата : Big
Идентификатор кодека : 2000
Продолжительность : 1 ч. 5 м.
Вид битрейта : Постоянный
Битрейт : 192 Кбит/сек
Каналы : 2 канала
Расположение каналов : Front: L R
Частота : 48,0 КГц
Частота кадров : 31,250 кадров/сек (1536 spf)
Битовая глубина : 16 бит
Метод сжатия : С потерями
Размер потока : 89,7 Мбайт (7%)
Выравнивание : Разделение по промежуткам
Заголовок : Ukrainian
Аудио #3
Идентификатор : 3
Формат : AC-3
Формат/Информация : Audio Coding 3
Расширение режима : CM (complete main)
Параметр Endianness формата : Big
Идентификатор кодека : 2000
Продолжительность : 1 ч. 5 м.
Вид битрейта : Постоянный
Битрейт : 192 Кбит/сек
Каналы : 2 канала
Расположение каналов : Front: L R
Частота : 48,0 КГц
Частота кадров : 31,250 кадров/сек (1536 spf)
Битовая глубина : 16 бит
Метод сжатия : С потерями
Размер потока : 89,7 Мбайт (7%)
Выравнивание : Разделение по промежуткам
Заголовок : English

Скриншот c названием фильма

Скриншоты

Вы не можете начинать темы
Вы не можете отвечать на сообщения
Вы не можете редактировать свои сообщения
Вы не можете удалять свои сообщения
Вы не можете голосовать в опросах
Вы не можете прикреплять файлы к сообщениям
Вы можете скачивать файлы
!ВНИМАНИЕ!

Сайт не предоставляет электронные версии произведений, а занимается лишь коллекционированием и каталогизацией ссылок, присылаемых и публикуемых на форуме нашими читателями. Если вы являетесь правообладателем какого-либо представленного материала и не желаете, чтобы ссылка на него находилась в нашем каталоге, свяжитесь с нами, и мы незамедлительно удалим ее. Файлы для обмена на трекере предоставлены пользователями сайта, и администрация не несет ответственности за их содержание. Просьба не заливать файлы, защищенные авторскими правами, а также файлы нелегального содержания!

Искали программы, игры, дополнения, музыка mp3, аниме, аудио книги, журналы? Добро пожаловать на свободный торрент трекер Torrents, у нас можно скачать бесплатно, без смс и регистрации и прочих ограничений лучшие, отборные сборки программ, игр. Скачать торрентом не составит труда даже не опытному пользователю. Раздачи ежедневно обновляются, только лучшие и качественные раздачи, подробные описания и скриншоты. Огромная коллекция программ для работы со звуком, графикой, дизайном, а так же множество плагинов и инструментов к ним с подробной инструкцией и рекомендациями. Прошивки для навигаторов, карты. Разнообразные игры, для Windows, Linux. В коллекцие есть и старые игры любых жанров, Rpg, Action, Shooter, strategy Множество дополнений, модификаций, сценариев для популярных игр в жанре экш, рпг, гонки, стратегии, логические игры. Множество аддонов и сценариев для Microsoft Flight Simulator Большая коллекция книг, учебников. Если нет возможности купить печатное издание - смело скачивайте цифровую версию книги или, быть может, журнала. Не любите читать - можно загрузить бесплатно аудикнигу. Для веб дизайнеров и программистов так же найдется множество специализированного софта, таких как: редакторы с подсветкой, среды программирования, компоненты, системы управления базами данных, разнообразные скрипты и шаблоны. Не так давно у нас появился материал для автолюбителей и владельцев мото - оригинальные и неоригинальные каталоги запчастей, книги и журналы по ремонту и обслуживанию, видеоуроки, статьи по чип тюнингу, прошивкам. Процедура получения контента элементарная, достаточно просто скачать торрент файл и добавить его в загрузку в вашем торрент клиенте. Если у вас нет специального торрент клиента, вы можете его скачать у нас.