Барби: Дримтопия. Фестиваль веселья / Barbie Dreamtopia: Festival of Fun (Ирэн Лэзер / Eran Lazar) [2017, приключения, мультфильм, DVB-AVC] Dub 

Цитировать
Барби: Дримтопия. Фестиваль веселья / Barbie Dreamtopia: Festival of Fun
Год выпуска: 2017
Страна: США, Mattel Creations
Жанр: приключения, мультфильм
Продолжительность: 00:40:33
Перевод: Профессиональный (дублированный)
Режиссёр: Ирэн Лэзер / Eran Lazar
Описание: Новый мультфильм о приключениях Барби и её сестренки Челси, в котором они путешествуют по волшебным мирам воображения.
Дримтопия - это волшебный мир, созданный воображением Челси, младшей сестрёнки Барби. Эта страна состоит из прекрасных лесов, гор, бухт и дворцов, а населяют ее красивые принцессы, феи и сказочные персонажи. На этот раз девочки запланировали провести чудесный праздник. Присоединяйтесь к Челси и Барби в их добрых приключениях в Дримтопии - мире фантазий, в котором возможно всё!
Доп. информация:

Трансляция спутникового канала:

Релиз группы:
Семпл: http://yadi.sk/i/Of4KKfKr3Mk7eo
Качество видео: DVB
Формат видео: MPEG-TS
Видео: MPEG4 Video (H264), 720x576@1047x576 (16:9), анаморф, 25 fps, 2100 kbps
Аудио: MPEG Audio, 2 сh, 48 kHz, 192 kbps

MediaInfo

G:\Барби. Дримтопия. Фестиваль веселья. (2017)_DVB by SLuMeP.ts
General #1
ID : 1 (0x1)
Complete name : G:\Барби. Дримтопия. Фестиваль веселья. (2017)_DVB by SLuMeP.ts
Format : MPEG-TS
File size : 691 MiB
Duration : 40mn 33s
Overall bit rate mode : Variable
Overall bit rate : 2 381 Kbps
Video #222
ID : 222 (0xDE)
Menu ID : 822 (0x336)
Format : AVC
Format/Info : Advanced Video Codec
Format profile : High@L3.0
Format settings, CABAC : Yes
Format settings, ReFrames : 4 frames
Codec ID : 27
Duration : 40mn 33s
Bit rate : 2 069 Kbps
Width : 720 pixels
Height : 576 pixels
Display aspect ratio : 16:9
Frame rate : 25.000 fps
Standard : Component
Color space : YUV
Chroma subsampling : 4:2:0
Bit depth : 8 bits
Scan type : Interlaced
Scan order : Top Field First
Bits/(Pixel*Frame) : 0.200
Stream size : 600 MiB (87%)
Color primaries : BT.601 PAL
Transfer characteristics : BT.470 System B, BT.470 System G
Matrix coefficients : BT.601
Audio #322
ID : 322 (0x142)
Menu ID : 822 (0x336)
Format : MPEG Audio
Format version : Version 1
Format profile : Layer 2
Codec ID : 3
Duration : 40mn 33s
Bit rate mode : Constant
Bit rate : 192 Kbps
Channel(s) : 2 channels
Sampling rate : 48.0 KHz
Compression mode : Lossy
Stream size : 55.7 MiB (8%)
Language : Russian

Скриншоты


Вы не можете начинать темы
Вы не можете отвечать на сообщения
Вы не можете редактировать свои сообщения
Вы не можете удалять свои сообщения
Вы не можете голосовать в опросах
Вы не можете прикреплять файлы к сообщениям
Вы можете скачивать файлы
!ВНИМАНИЕ!

Сайт не предоставляет электронные версии произведений, а занимается лишь коллекционированием и каталогизацией ссылок, присылаемых и публикуемых на форуме нашими читателями. Если вы являетесь правообладателем какого-либо представленного материала и не желаете, чтобы ссылка на него находилась в нашем каталоге, свяжитесь с нами, и мы незамедлительно удалим ее. Файлы для обмена на трекере предоставлены пользователями сайта, и администрация не несет ответственности за их содержание. Просьба не заливать файлы, защищенные авторскими правами, а также файлы нелегального содержания!

Искали программы, игры, дополнения, музыка mp3, аниме, аудио книги, журналы? Добро пожаловать на свободный торрент трекер Torrents, у нас можно скачать бесплатно, без смс и регистрации и прочих ограничений лучшие, отборные сборки программ, игр. Скачать торрентом не составит труда даже не опытному пользователю. Раздачи ежедневно обновляются, только лучшие и качественные раздачи, подробные описания и скриншоты. Огромная коллекция программ для работы со звуком, графикой, дизайном, а так же множество плагинов и инструментов к ним с подробной инструкцией и рекомендациями. Прошивки для навигаторов, карты. Разнообразные игры, для Windows, Linux. В коллекцие есть и старые игры любых жанров, Rpg, Action, Shooter, strategy Множество дополнений, модификаций, сценариев для популярных игр в жанре экш, рпг, гонки, стратегии, логические игры. Множество аддонов и сценариев для Microsoft Flight Simulator Большая коллекция книг, учебников. Если нет возможности купить печатное издание - смело скачивайте цифровую версию книги или, быть может, журнала. Не любите читать - можно загрузить бесплатно аудикнигу. Для веб дизайнеров и программистов так же найдется множество специализированного софта, таких как: редакторы с подсветкой, среды программирования, компоненты, системы управления базами данных, разнообразные скрипты и шаблоны. Не так давно у нас появился материал для автолюбителей и владельцев мото - оригинальные и неоригинальные каталоги запчастей, книги и журналы по ремонту и обслуживанию, видеоуроки, статьи по чип тюнингу, прошивкам. Процедура получения контента элементарная, достаточно просто скачать торрент файл и добавить его в загрузку в вашем торрент клиенте. Если у вас нет специального торрент клиента, вы можете его скачать у нас.