Девичьи обещанья / Девичьи обеты / Sluby panienskie (Филип Байон / Filip Bajon) [2010, Польша, мелодрама, комедия, DVDRip-AVC] VO (acolith) 

Цитировать
Девичьи обещанья / Девичьи обеты / Sluby panienskie- Страна: Польша
Жанр: мелодрама, комедия
Год выпуска: 2010
Продолжительность: 01:36:10
Перевод: Одноголосый закадровый acolith
Субтитры: нет
Оригинальная аудиодорожка: польский-Режиссер: Филип Байон / Filip Bajon-В ролях:
Анна Цесляк, Мацей Штур, Марта Жмуда Тшебятовска, Борис Шыц, Робэрт Вецкевич, Эдита Ольшувка, Анджей Грабовски, Виктор Зборовский, Ежи Рогальский, Михал Пеля и другие.-Описание:
Альбин и Густав — друзья и разгульные парни, которые пытаются любой ценой соблазнить девушек Анелу и Клару, решительно настроенных против всех, по их мнению, всегда неискренних и коварных мужчин. Однако на этот раз поиски слабых точек женщин, чтобы обрести желаемое — встречают жёсткий отпор и терпят неудачи.-Дополнительная информация: стихотворный перевод-Сэмпл: http://sendfile.su/1359041-Качество видео: DVDRip-AVC
Формат видео: MKV
Видео: 720x576@1024x576 (16:9), 25fps, MPEG4 Video (H264), h264 high L4.1 ~2149kb/s
Аудио 1: 48 kHz, AC3 Dolby Digital 3/2 (L,C,R,l,r) + LFE ch, ~448 kbps русский одноголосый
Аудио 2: 48 kHz, AC3 Dolby Digital 3/2 (L,C,R,l,r) + LFE ch, ~448 kbps польский

MediaInfo

General
Unique ID
Complete name
Format : Matroska
Format version : Version 2
File size : 2.05 GiB
Duration : 1 h 36 min
Overall bit rate : 3 046 kb/s
Encoded date : UTC 2017-09-02 07:26:06
Writing application : mkvmerge v5.7.0 ('The Whirlwind') built on Jul 29 2012 15:12:35
Writing library : libebml v1.2.3 + libmatroska v1.3.0
Video
ID : 1
Format : AVC
Format/Info : Advanced Video Codec
Format profile : High@L4.1
Format settings, CABAC : Yes
Format settings, RefFrames : 8 frames
Muxing mode : Header stripping
Codec ID : V_MPEG4/ISO/AVC
Duration : 1 h 36 min
Bit rate : 2 149 kb/s
Width : 720 pixels
Height : 576 pixels
Display aspect ratio : 16:9
Original display aspect ratio : 5:4
Frame rate mode : Constant
Frame rate : 25.000 FPS
Standard : PAL
Color space : YUV
Chroma subsampling : 4:2:0
Bit depth : 8 bits
Scan type : Progressive
Bits/(Pixel*Frame) : 0.207
Stream size : 1.40 GiB (69%)
Writing library : x264 core 115 r1937 aa21558
Encoding settings : cabac=1 / ref=8 / deblock=1:-2:-2 / analyse=0x3:0x113 / me=umh / subme=8 / psy=1 / psy_rd=1.00:0.10 / mixed_ref=0 / me_range=32 / chroma_me=1 / trellis=2 / 8x8dct=1 / cqm=0 / deadzone=21,11 / fast_pskip=1 / chroma_qp_offset=-3 / threads=6 / sliced_threads=0 / nr=0 / decimate=1 / interlaced=0 / bluray_compat=0 / constrained_intra=0 / bframes=8 / b_pyramid=2 / b_adapt=2 / b_bias=0 / direct=3 / weightb=1 / open_gop=0 / weightp=0 / keyint=250 / keyint_min=25 / scenecut=40 / intra_refresh=0 / rc_lookahead=30 / rc=2pass / mbtree=1 / bitrate=2149 / ratetol=1.0 / qcomp=0.60 / qpmin=15 / qpmax=47 / qpstep=3 / cplxblur=20.0 / qblur=0.5 / ip_ratio=1.40 / aq=1:1.10
Default : Yes
Forced : No
Statistics Tags Issue : mkvmerge v11.0.0 ('Alive') 64bit 2017-09-02 01:08:33 / mkvmerge v5.7.0 ('The Whirlwind') built on Jul 29 2012 15:12:35 2017-09-02 07:26:06
FromStats_BitRate : 2148846
FromStats_Duration : 01:36:10.480000000
FromStats_FrameCount : 144262
FromStats_StreamSize : 1549984646
Audio #1
ID : 2
Format : AC-3
Format/Info : Audio Coding 3
Format settings, Endianness : Big
Muxing mode : Header stripping
Codec ID : A_AC3
Duration : 1 h 36 min
Bit rate mode : Constant
Bit rate : 448 kb/s
Channel(s) : 6 channels
Channel positions : Front: L C R, Side: L R, LFE
Sampling rate : 48.0 kHz
Frame rate : 31.250 FPS (1536 SPF)
Bit depth : 16 bits
Compression mode : Lossy
Stream size : 308 MiB (15%)
Title : acolith
Language : Russian
Service kind : Complete Main
Default : Yes
Forced : No
Statistics Tags Issue : mkvmerge v11.0.0 ('Alive') 64bit 2017-09-02 01:08:33 / mkvmerge v5.7.0 ('The Whirlwind') built on Jul 29 2012 15:12:35 2017-09-02 07:26:06
FromStats_BitRate : 448000
FromStats_Duration : 01:36:10.464000000
FromStats_FrameCount : 180327
FromStats_StreamSize : 323145984
Audio #2
ID : 3
Format : AC-3
Format/Info : Audio Coding 3
Format settings, Endianness : Big
Muxing mode : Header stripping
Codec ID : A_AC3
Duration : 1 h 36 min
Bit rate mode : Constant
Bit rate : 448 kb/s
Channel(s) : 6 channels
Channel positions : Front: L C R, Side: L R, LFE
Sampling rate : 48.0 kHz
Frame rate : 31.250 FPS (1536 SPF)
Bit depth : 16 bits
Compression mode : Lossy
Stream size : 308 MiB (15%)
Title : Оригинал
Language : Polish
Service kind : Complete Main
Default : No
Forced : No
Statistics Tags Issue : mkvmerge v11.0.0 ('Alive') 64bit 2017-09-02 01:08:33 / mkvmerge v5.7.0 ('The Whirlwind') built on Jul 29 2012 15:12:35 2017-09-02 07:26:06
FromStats_BitRate : 448000
FromStats_Duration : 01:36:10.464000000
FromStats_FrameCount : 180327
FromStats_StreamSize : 323145984

Скриншот c названием фильма

Скриншоты


Вы не можете начинать темы
Вы не можете отвечать на сообщения
Вы не можете редактировать свои сообщения
Вы не можете удалять свои сообщения
Вы не можете голосовать в опросах
Вы не можете прикреплять файлы к сообщениям
Вы можете скачивать файлы
!ВНИМАНИЕ!

Сайт не предоставляет электронные версии произведений, а занимается лишь коллекционированием и каталогизацией ссылок, присылаемых и публикуемых на форуме нашими читателями. Если вы являетесь правообладателем какого-либо представленного материала и не желаете, чтобы ссылка на него находилась в нашем каталоге, свяжитесь с нами, и мы незамедлительно удалим ее. Файлы для обмена на трекере предоставлены пользователями сайта, и администрация не несет ответственности за их содержание. Просьба не заливать файлы, защищенные авторскими правами, а также файлы нелегального содержания!

Искали программы, игры, дополнения, музыка mp3, аниме, аудио книги, журналы? Добро пожаловать на свободный торрент трекер Torrents, у нас можно скачать бесплатно, без смс и регистрации и прочих ограничений лучшие, отборные сборки программ, игр. Скачать торрентом не составит труда даже не опытному пользователю. Раздачи ежедневно обновляются, только лучшие и качественные раздачи, подробные описания и скриншоты. Огромная коллекция программ для работы со звуком, графикой, дизайном, а так же множество плагинов и инструментов к ним с подробной инструкцией и рекомендациями. Прошивки для навигаторов, карты. Разнообразные игры, для Windows, Linux. В коллекцие есть и старые игры любых жанров, Rpg, Action, Shooter, strategy Множество дополнений, модификаций, сценариев для популярных игр в жанре экш, рпг, гонки, стратегии, логические игры. Множество аддонов и сценариев для Microsoft Flight Simulator Большая коллекция книг, учебников. Если нет возможности купить печатное издание - смело скачивайте цифровую версию книги или, быть может, журнала. Не любите читать - можно загрузить бесплатно аудикнигу. Для веб дизайнеров и программистов так же найдется множество специализированного софта, таких как: редакторы с подсветкой, среды программирования, компоненты, системы управления базами данных, разнообразные скрипты и шаблоны. Не так давно у нас появился материал для автолюбителей и владельцев мото - оригинальные и неоригинальные каталоги запчастей, книги и журналы по ремонту и обслуживанию, видеоуроки, статьи по чип тюнингу, прошивкам. Процедура получения контента элементарная, достаточно просто скачать торрент файл и добавить его в загрузку в вашем торрент клиенте. Если у вас нет специального торрент клиента, вы можете его скачать у нас.