Укротитель поезда / Train Master (Фил Брэнсом / Phil Bransom) [2008, США, приключения, SATRip] MVO 

Цитировать
Укротитель поезда / Train Master
Год выпуска: 2008
Страна: США
Жанр: приключения
Продолжительность: 01:33:05.240 (139631 frames)
Перевод: Профессиональный (многоголосый закадровый) Студия "Акцент"
Оригинальная аудиодорожка: нет
Русские субтитры: нет
Режиссер: Фил Брэнсом / Phil Bransom
В ролях: Джон Эшли Холл / Jon Ashley Hall (Brett Banner), Майкл Бьесанз / Michael Biesanz (Jeremiah Wilson), Мерседес Роуз / Mercedes Rose (Jennifer Wilson-Ward), Элайджа Нельсон / Elijah Nelson (Thomas Wilson-Ward), Иа Гилберт / Ia Gilbert (Sarah Wilson-Ward), Дэниэл Нельсон / Daniel Nelson (Justin Banner), Ноа Смит / Noah Smith (Douglas Snyder)
Описание: Группа провинциальных детей отправляется на поиски приключений на грузовом поезде, который в какой-то момент окажется неуправляемым и потребует от ребят проявления небывалых храбрости и смекалки.
Качество: SATRip
Формат: AVI
Видео кодек: XviD
Аудио кодек: МР3
Видео: 688x384 (1.79:1), 25 fps, XviD build 73 ~981 kbps avg, 0.15 bit/pixel
Аудио: 48 kHz, MPEG Layer 3, 2 ch, ~128.00 kbps avg

Медиаинфо

F:\004 Мои раздачи\Укротитель поезда 745\ukrotitel_poezda_745_[torrents.ru]_by_bm11.avi
General
Complete name : F:\004 Мои раздачи\Укротитель поезда 745\ukrotitel_poezda_745_[torrents.ru]_by_bm11.avi
Format : AVI
Format/Info : Audio Video Interleave
File size : 745 MiB
Duration : 1h 33mn
Overall bit rate : 1 120 Kbps
Director : bm11
Writing application : VirtualDubMod 1.5.10.3 | www.virtualdub-fr.org || (build 2550/release)
Video
Format : MPEG-4 Visual
Format profile : Streaming Video@L1
Format settings, BVOP : Yes
Format settings, QPel : No
Format settings, GMC : No warppoints
Format settings, Matrix : Custom
Codec ID : XVID
Codec ID/Hint : XviD
Duration : 1h 33mn
Bit rate : 982 Kbps
Width : 688 pixels
Height : 384 pixels
Display aspect ratio : 16/9
Frame rate : 25.000 fps
Resolution : 24 bits
Colorimetry : 4:2:0
Scan type : Progressive
Bits/(Pixel*Frame) : 0.149
Stream size : 654 MiB (88%)
Writing library : XviD 73
Audio
Format : MPEG Audio
Format version : Version 1
Format profile : Layer 3
Codec ID : 55
Codec ID/Hint : MP3
Duration : 1h 33mn
Bit rate mode : Constant
Bit rate : 128 Kbps
Minimum bit rate : 128 Kbps
Channel(s) : 2 channels
Sampling rate : 48.0 KHz
Resolution : 16 bits
Stream size : 85.2 MiB (11%)
Alignment : Aligned on interleaves
Interleave, duration : 40 ms (1.00 video frame)
Interleave, preload duration : 504 ms
Writing library : LAME3.99r
Encoding settings : CBR
Вы не можете начинать темы
Вы не можете отвечать на сообщения
Вы не можете редактировать свои сообщения
Вы не можете удалять свои сообщения
Вы не можете голосовать в опросах
Вы не можете прикреплять файлы к сообщениям
Вы можете скачивать файлы
!ВНИМАНИЕ!

Сайт не предоставляет электронные версии произведений, а занимается лишь коллекционированием и каталогизацией ссылок, присылаемых и публикуемых на форуме нашими читателями. Если вы являетесь правообладателем какого-либо представленного материала и не желаете, чтобы ссылка на него находилась в нашем каталоге, свяжитесь с нами, и мы незамедлительно удалим ее. Файлы для обмена на трекере предоставлены пользователями сайта, и администрация не несет ответственности за их содержание. Просьба не заливать файлы, защищенные авторскими правами, а также файлы нелегального содержания!

Искали программы, игры, дополнения, музыка mp3, аниме, аудио книги, журналы? Добро пожаловать на свободный торрент трекер Torrents, у нас можно скачать бесплатно, без смс и регистрации и прочих ограничений лучшие, отборные сборки программ, игр. Скачать торрентом не составит труда даже не опытному пользователю. Раздачи ежедневно обновляются, только лучшие и качественные раздачи, подробные описания и скриншоты. Огромная коллекция программ для работы со звуком, графикой, дизайном, а так же множество плагинов и инструментов к ним с подробной инструкцией и рекомендациями. Прошивки для навигаторов, карты. Разнообразные игры, для Windows, Linux. В коллекцие есть и старые игры любых жанров, Rpg, Action, Shooter, strategy Множество дополнений, модификаций, сценариев для популярных игр в жанре экш, рпг, гонки, стратегии, логические игры. Множество аддонов и сценариев для Microsoft Flight Simulator Большая коллекция книг, учебников. Если нет возможности купить печатное издание - смело скачивайте цифровую версию книги или, быть может, журнала. Не любите читать - можно загрузить бесплатно аудикнигу. Для веб дизайнеров и программистов так же найдется множество специализированного софта, таких как: редакторы с подсветкой, среды программирования, компоненты, системы управления базами данных, разнообразные скрипты и шаблоны. Не так давно у нас появился материал для автолюбителей и владельцев мото - оригинальные и неоригинальные каталоги запчастей, книги и журналы по ремонту и обслуживанию, видеоуроки, статьи по чип тюнингу, прошивкам. Процедура получения контента элементарная, достаточно просто скачать торрент файл и добавить его в загрузку в вашем торрент клиенте. Если у вас нет специального торрент клиента, вы можете его скачать у нас.