Андрес не хочет спать днем / Andrés no quiere dormir la siesta (Даниэль Бустаманте / Daniel Bustamante) [2009, Аргентина, драма, DVDRip-AVC] VO + Sub Rus + Original Spa 

Цитировать
Андрес не хочет спать днем / Andrés no quiere dormir la siesta
Страна: Аргентина
Жанр: драма
Год выпуска: 2009
Продолжительность: 01:47:22
Перевод: Одноголосый закадровый
Субтитры: русские
Оригинальная аудиодорожка: испанский
Режиссер: Даниэль Бустаманте / Daniel Bustamante
В ролях: Конрадо Валенсуела / Conrado Valenzuela, Норма Алеандро / Norma Aleandro, Фабио Асте / Fabio Aste, Хуан Мануэль Тенута / Juan Manuel Tenuta, Селина Фонт / Selina Font, Алисия Аллер / Alisia Aller, Lautaro Puccia Sagardoy, María José Gabín
Описание: Андрес и его старший брат Армандо живут со своей давно разведенной матерью. После ее гибели они вынуждены переехать в дом отца, который до этого почти не принимал участия в их воспитании, и его матери. Отношения между Андресом, его отцом и бабушкой Ольгой не складываются.
Сэмпл: http://multi-up.com/1165092
Качество видео: DVDRip-AVC
Формат видео: MKV
Видео: MPEG-4 Visual at 1910 Кбит/сек : 720 x 416 (1.731) at 29.970 fps
Аудио 1: MPEG Audio at 192 Кбит/сек : 2 канала, 48,0 КГц Language : ru
Аудио 2: MPEG Audio at 192 Кбит/сек : 2 канала, 48,0 КГц Language : es
Формат субтитров: prerendered (IDX+SUB)
Доп. информация о субтитрах: отключаемые (jojag)

MediaInfo

Общее
Уникальный идентификатор : 219662608757167161086846666712210334819 (0xA5417AC632BD97EDBBEE0EB0DDA9E463)
Полное имя : F:\С моей озвучкой\Андрес не хочет спать днем.mkv
Формат : Matroska
Версия формата : Version 4 / Version 2
Размер файла : 1,72 Гбайт
Продолжительность : 1 ч. 47 м.
Общий поток : 2296 Кбит/сек
Дата кодирования : UTC 2017-08-16 20:18:20
Программа кодирования : mkvmerge v7.9.0 ('Birds') 64bit
Библиотека кодирования : libebml v1.3.1 + libmatroska v1.4.2
Видео
Идентификатор : 1
Формат : MPEG-4 Visual
Идентификатор кодека : V_MPEG4/ISO/ASP
Идентификатор кодека/Информация : Advanced Simple Profile
Продолжительность : 1 ч. 47 м.
Битрейт : 1910 Кбит/сек
Ширина : 720 пикселей
Высота : 416 пикселей
Соотношение сторон : 1,731
Режим частоты кадров : Постоянный
Частота кадров : 29,970 кадров/сек
Метод сжатия : С потерями
Бит/(Пиксели*Кадры) : 0.213
Размер потока : 1,43 Гбайт (83%)
Default : Да
Forced : Нет
Аудио #1
Идентификатор : 2
Формат : MPEG Audio
Версия формата : Version 1
Профиль формата : Layer 3
Режим : Joint stereo
Расширение режима : MS Stereo
Идентификатор кодека : A_MPEG/L3
Идентификатор кодека/Подсказка : MP3
Продолжительность : 1 ч. 47 м.
Вид битрейта : Постоянный
Битрейт : 192 Кбит/сек
Каналы : 2 канала
Частота : 48,0 КГц
Частота кадров : 41,667 кадра/сек (1152 spf)
Метод сжатия : С потерями
Задержка видео : -33 мс.
Размер потока : 147 Мбайт (8%)
Библиотека кодирования : LAME3.96
Язык : Russian
Default : Да
Forced : Нет
Аудио #2
Идентификатор : 3
Формат : MPEG Audio
Версия формата : Version 1
Профиль формата : Layer 3
Режим : Joint stereo
Расширение режима : MS Stereo
Идентификатор кодека : A_MPEG/L3
Идентификатор кодека/Подсказка : MP3
Продолжительность : 1 ч. 47 м.
Вид битрейта : Постоянный
Битрейт : 192 Кбит/сек
Каналы : 2 канала
Частота : 48,0 КГц
Частота кадров : 41,667 кадра/сек (1152 spf)
Метод сжатия : С потерями
Задержка видео : -33 мс.
Размер потока : 147 Мбайт (8%)
Библиотека кодирования : LAME3.98
Язык : Spanish
Default : Нет
Forced : Нет
Текст
Идентификатор : 4
Формат : UTF-8
Идентификатор кодека : S_TEXT/UTF8
Идентификатор кодека/Информация : UTF-8 Plain Text
Продолжительность : 1 ч. 44 м.
Битрейт : 90 бит/сек
ElementCount : 1460
Размер потока : 68,9 Кбайт (0%)
Язык : Russian
Default : Да
Forced : Нет

Скриншоты

Вы не можете начинать темы
Вы не можете отвечать на сообщения
Вы не можете редактировать свои сообщения
Вы не можете удалять свои сообщения
Вы не можете голосовать в опросах
Вы не можете прикреплять файлы к сообщениям
Вы можете скачивать файлы
!ВНИМАНИЕ!

Сайт не предоставляет электронные версии произведений, а занимается лишь коллекционированием и каталогизацией ссылок, присылаемых и публикуемых на форуме нашими читателями. Если вы являетесь правообладателем какого-либо представленного материала и не желаете, чтобы ссылка на него находилась в нашем каталоге, свяжитесь с нами, и мы незамедлительно удалим ее. Файлы для обмена на трекере предоставлены пользователями сайта, и администрация не несет ответственности за их содержание. Просьба не заливать файлы, защищенные авторскими правами, а также файлы нелегального содержания!

Искали программы, игры, дополнения, музыка mp3, аниме, аудио книги, журналы? Добро пожаловать на свободный торрент трекер Torrents, у нас можно скачать бесплатно, без смс и регистрации и прочих ограничений лучшие, отборные сборки программ, игр. Скачать торрентом не составит труда даже не опытному пользователю. Раздачи ежедневно обновляются, только лучшие и качественные раздачи, подробные описания и скриншоты. Огромная коллекция программ для работы со звуком, графикой, дизайном, а так же множество плагинов и инструментов к ним с подробной инструкцией и рекомендациями. Прошивки для навигаторов, карты. Разнообразные игры, для Windows, Linux. В коллекцие есть и старые игры любых жанров, Rpg, Action, Shooter, strategy Множество дополнений, модификаций, сценариев для популярных игр в жанре экш, рпг, гонки, стратегии, логические игры. Множество аддонов и сценариев для Microsoft Flight Simulator Большая коллекция книг, учебников. Если нет возможности купить печатное издание - смело скачивайте цифровую версию книги или, быть может, журнала. Не любите читать - можно загрузить бесплатно аудикнигу. Для веб дизайнеров и программистов так же найдется множество специализированного софта, таких как: редакторы с подсветкой, среды программирования, компоненты, системы управления базами данных, разнообразные скрипты и шаблоны. Не так давно у нас появился материал для автолюбителей и владельцев мото - оригинальные и неоригинальные каталоги запчастей, книги и журналы по ремонту и обслуживанию, видеоуроки, статьи по чип тюнингу, прошивкам. Процедура получения контента элементарная, достаточно просто скачать торрент файл и добавить его в загрузку в вашем торрент клиенте. Если у вас нет специального торрент клиента, вы можете его скачать у нас.