Полицейский пёс / Марлоу / Cop Dog (Джон Марловски / John Murlowski) [2008, США, приключения, семейный, DVDRip] MVO (студия Акцент) 

Цитировать
Полицейский пёс / Марлоу / Cop Dog
Страна: США
Жанр: Приключения, семейный
Год выпуска: 2008
Продолжительность: 01:28:16
Перевод: Профессиональный (многоголосый закадровый) студия Акцент
Субтитры: нет
Режиссер: Джон Марловски / John Murlowski
В ролях: Билли Ангер, Стефани Мишелс, Кассандра Томсон, Корин Немек, Александр Чаплин, Брайан Расмуссен, Джо Хэкетт, Ник Холмс, Питер Луни, Том Шелл, пёс Кума в роли Марлоу
Описание: С тех пор, как отец Робби был убит, исполняя служебные обязанности, Робби впал в печаль. Старого партнёра его отца, полицейского пса по имени Марлоу, постигла та же участь. Однажды Робби, увидев Марлоу одного и запертого в клетке, уговорил маму позволить ему забрать его. Будучи собакой полицейского, Марлоу, узнаёт преступников (тех же самых, которых отец Робби разыскивал перед гибелью), Марлоу бросился преследовать их, но был сбит автомобилем. Робби вновь погружается в тоску. Но ночью Робби услышал лай. Выйдя на улицу, он видит Марлоу и обнаруживает, что тот возвратился в виде призрака. Собака полицейского не смогла исчезнуть, оставив незаконченное дело. С помощью собаки Робби смог найти преступников и выяснить тайну смерти отца.
Доп. информация:
пёс Кума в роли Марлоу также снимался в сериале "Собака точка ком"
у фильма 2 названия: "Полицейский пёс" и "Марлоу"
Сэмпл: http://www.sendspace.com/file/143it7
Качество видео: DVDRip
Формат видео: AVI
Видео: XviD, 1039 Кбит/сек, 720 х 400 пикс, 25,0 кадр/сек, 0.144 Бит/(Пиксели*Кадры)
Аудио: MP3, 128 Кбит/сек, 48,0 КГц, 2 канала

MediaInfo

Общее
Полное имя : C:\фильмы\02 возможно для раздачи\Полицейский пес (Марлоу) 2008г\Полицейский пёс 2008г.avi
Формат : AVI
Формат/Информация : Audio Video Interleave
Размер файла : 743 Мбайт
Продолжительность : 1 ч. 28 м.
Общий поток : 1177 Кбит/сек
Библиотека кодирования : VirtualDub build 32817/release
Видео
Идентификатор : 0
Формат : MPEG-4 Visual
Профиль формата : Advanced Simple@L4
Параметр BVOP формата : Нет
Параметр QPel формата : Нет
Параметр GMC формата : Без точки перехода
Параметр матрицы формата : Default (H.263)
Идентификатор кодека : XVID
Идентификатор кодека/Подсказка : XviD
Продолжительность : 1 ч. 28 м.
Битрейт : 1039 Кбит/сек
Ширина : 720 пикселей
Высота : 400 пикселей
Соотношение сторон : 16:9
Частота кадров : 25,000 кадров/сек
Цветовое пространство : YUV
Субдискретизация насыщенности : 4:2:0
Битовая глубина : 8 бит
Тип развёртки : Прогрессивная
Метод сжатия : С потерями
Бит/(Пиксели*Кадры) : 0.144
Размер потока : 656 Мбайт (88%)
Аудио
Идентификатор : 1
Формат : MPEG Audio
Версия формата : Version 1
Профиль формата : Layer 3
Идентификатор кодека : 55
Идентификатор кодека/Подсказка : MP3
Продолжительность : 1 ч. 28 м.
Вид битрейта : Постоянный
Битрейт : 128 Кбит/сек
Каналы : 2 канала
Частота : 48,0 КГц
Метод сжатия : С потерями
Размер потока : 80,8 Мбайт (11%)
Выравнивание : Разделение по промежуткам
Продолжительность промежутка : 40 мс. (1,00 видеокадр)
Время предзагрузки промежутка : 500 мс.
Библиотека кодирования : LAME3.98.2

Скриншот c названием фильма

Скриншоты


Предыдущие или аналогичные раздачи

Моя собака-привидение
http://rutracker.org/forum/viewtopic.php?t=2064289

форум "фильмы о собаках и волках"

http://rutracker.org/forum/viewtopic.php?t=1144862
Вы не можете начинать темы
Вы не можете отвечать на сообщения
Вы не можете редактировать свои сообщения
Вы не можете удалять свои сообщения
Вы не можете голосовать в опросах
Вы не можете прикреплять файлы к сообщениям
Вы можете скачивать файлы
!ВНИМАНИЕ!

Сайт не предоставляет электронные версии произведений, а занимается лишь коллекционированием и каталогизацией ссылок, присылаемых и публикуемых на форуме нашими читателями. Если вы являетесь правообладателем какого-либо представленного материала и не желаете, чтобы ссылка на него находилась в нашем каталоге, свяжитесь с нами, и мы незамедлительно удалим ее. Файлы для обмена на трекере предоставлены пользователями сайта, и администрация не несет ответственности за их содержание. Просьба не заливать файлы, защищенные авторскими правами, а также файлы нелегального содержания!

Искали программы, игры, дополнения, музыка mp3, аниме, аудио книги, журналы? Добро пожаловать на свободный торрент трекер Torrents, у нас можно скачать бесплатно, без смс и регистрации и прочих ограничений лучшие, отборные сборки программ, игр. Скачать торрентом не составит труда даже не опытному пользователю. Раздачи ежедневно обновляются, только лучшие и качественные раздачи, подробные описания и скриншоты. Огромная коллекция программ для работы со звуком, графикой, дизайном, а так же множество плагинов и инструментов к ним с подробной инструкцией и рекомендациями. Прошивки для навигаторов, карты. Разнообразные игры, для Windows, Linux. В коллекцие есть и старые игры любых жанров, Rpg, Action, Shooter, strategy Множество дополнений, модификаций, сценариев для популярных игр в жанре экш, рпг, гонки, стратегии, логические игры. Множество аддонов и сценариев для Microsoft Flight Simulator Большая коллекция книг, учебников. Если нет возможности купить печатное издание - смело скачивайте цифровую версию книги или, быть может, журнала. Не любите читать - можно загрузить бесплатно аудикнигу. Для веб дизайнеров и программистов так же найдется множество специализированного софта, таких как: редакторы с подсветкой, среды программирования, компоненты, системы управления базами данных, разнообразные скрипты и шаблоны. Не так давно у нас появился материал для автолюбителей и владельцев мото - оригинальные и неоригинальные каталоги запчастей, книги и журналы по ремонту и обслуживанию, видеоуроки, статьи по чип тюнингу, прошивкам. Процедура получения контента элементарная, достаточно просто скачать торрент файл и добавить его в загрузку в вашем торрент клиенте. Если у вас нет специального торрент клиента, вы можете его скачать у нас.