Марго / Margot (Отто Бэтхёрст / Otto Bathurst) [2009, Великобритания, драма, биография, HDRip-AVC] MVO (SDI Media) + Original Eng + Rus Subs 

Цитировать
МаргоMargot- Год выпуска: 2009
Страна: Великобритания
Жанр: драма, биография-Продолжительность: 01:25:16
Перевод: Профессиональный (многоголосый закадровый) SDI Media
Субтитры: русские (форс., полные)
Оригинальная аудиодорожка: английская-Режиссёр: Отто Бэтхёрст / Otto Bathurst
В ролях: Энн-Мэри Дафф, Линдси Дункан, Михил Хаусман, Дерек Джакоби, Кон О'Нилл, Пенелопа Уилтон, Мэттью Харт, Мишель Боннар, Марго Лейкестер, Антон Луковкин и др.-Описание: Век балетных танцовщиков недолог. После сорока карьера даже самых великих обычно идет на спад. Прима-балерина Ковент Гардена Марго Фонтейн получила необыкновенный шанс не только продлить свою балетную жизнь, но и пережить самый блестящий ее период благодаря появлению в Лондоне молодой русской звезды Рудольфа Нуриева.-КиноПоиск | IMDb | Sample-Качество: HDRip-AVC (Источник: Margot.2009.1080p.BluRay.x264-aAF)
Формат: MKV
Видео: x264, 902x508 (16:9), 23.976 fps, ~2059 Kbps avg, 0.187 bit/pixel
Аудио #1: Russian 48.0 KHz, AС3, 2 (Front: L R) ch, ~192.00 kbps avg |SDI Media|
Аудио #2: English 48.0 KHz, AС3, 2 (Front: L R) ch, ~192.00 kbps avg avg |Original|
Формат субтитров: softsub (SRT)-

Релиз


Рип, работа со звуком и субтитрами - whip93.

Сравнения с исходником

Source vs. Encode

MediaInfo | x264 log

x264 log

---[Information] [12.08.2017 8:05:37] raw [info]: 902x508p 1:1 @ 24000/1001 fps (cfr)
---[Information] [12.08.2017 8:05:37] x264 [info]: using SAR=1/1
---[Information] [12.08.2017 8:05:37] x264 [info]: using cpu capabilities: MMX2 SSE2Fast SSSE3 SSE4.2 AVX
---[Information] [12.08.2017 8:05:37] x264 [info]: profile High, level 4.1
---[Information] [12.08.2017 12:50:27] x264 [info]: frame I:770 Avg QP:15.01 size: 52378
---[Information] [12.08.2017 12:50:27] x264 [info]: frame P:24978 Avg QP:17.72 size: 18271
---[Information] [12.08.2017 12:50:27] x264 [info]: frame B:96916 Avg QP:18.76 size: 8453
---[Information] [12.08.2017 12:50:27] x264 [info]: consecutive B-frames: 1.7% 2.0% 4.8% 14.6% 32.3% 25.5% 7.6% 5.2% 2.5% 1.9% 0.5% 0.4% 0.3% 0.7%
---[Information] [12.08.2017 12:50:27] x264 [info]: mb I I16..4: 7.5% 78.6% 13.9%
---[Information] [12.08.2017 12:50:27] x264 [info]: mb P I16..4: 1.6% 11.0% 1.1% P16..4: 32.8% 37.3% 10.9% 1.1% 0.1% skip: 4.0%
---[Information] [12.08.2017 12:50:27] x264 [info]: mb B I16..4: 0.2% 1.6% 0.1% B16..8: 37.2% 23.2% 3.3% direct: 7.0% skip:27.5% L0:46.1% L1:45.5% BI: 8.4%
---[Information] [12.08.2017 12:50:27] x264 [info]: 8x8 transform intra:80.7% inter:68.2%
---[Information] [12.08.2017 12:50:27] x264 [info]: coded y,uvDC,uvAC intra: 83.6% 88.7% 71.3% inter: 26.0% 35.5% 8.9%
---[Information] [12.08.2017 12:50:27] x264 [info]: i16 v,h,dc,p: 16% 22% 2% 60%
---[Information] [12.08.2017 12:50:27] x264 [info]: i8 v,h,dc,ddl,ddr,vr,hd,vl,hu: 11% 10% 5% 9% 13% 14% 12% 13% 12%
---[Information] [12.08.2017 12:50:27] x264 [info]: i4 v,h,dc,ddl,ddr,vr,hd,vl,hu: 16% 11% 4% 8% 14% 15% 11% 11% 10%
---[Information] [12.08.2017 12:50:27] x264 [info]: i8c dc,h,v,p: 45% 21% 22% 13%
---[Information] [12.08.2017 12:50:27] x264 [info]: Weighted P-Frames: Y:3.5% UV:0.9%
---[Information] [12.08.2017 12:50:27] x264 [info]: ref P L0: 43.2% 6.9% 20.3% 7.0% 6.0% 4.2% 3.9% 1.9% 1.9% 1.6% 1.6% 1.4% 0.1% 0.0%
---[Information] [12.08.2017 12:50:27] x264 [info]: ref B L0: 65.5% 14.7% 7.0% 3.5% 2.6% 2.2% 1.8% 1.1% 0.9% 0.6% 0.2%
---[Information] [12.08.2017 12:50:27] x264 [info]: ref B L1: 89.6% 10.4%
---[Information] [12.08.2017 12:50:27] x264 [info]: kb/s:2057.77
---[Information] [12.08.2017 12:50:27] encoded 122664 frames, 7.18 fps, 2057.77 kb/s
General
Unique ID : 177914488213039800986093699137756799705 (0x85D915839428AF48A88D125787E922D9)
Complete name : F:\Margot.2009.HDRip.DD2.0.x264.-whip93.mkv
Format : Matroska
Format version : Version 4 / Version 2
File size : 1.46 GiB
Duration : 1h 25mn
Overall bit rate : 2 444 Kbps
Movie name : Марго | Margot (2009) - Release by whip93
Encoded date : UTC 2017-08-12 09:12:09
Writing application : mkvmerge v6.1.0 ('Old Devil') built on Mar 4 2013 09:10:42
Writing library : libebml v1.3.0 + libmatroska v1.4.0
Video
ID : 1
Format : AVC
Format/Info : Advanced Video Codec
Format profile : High@L4.1
Format settings, CABAC : Yes
Format settings, ReFrames : 12 frames
Codec ID : V_MPEG4/ISO/AVC
Duration : 1h 25mn
Bit rate : 2 059 Kbps
Width : 902 pixels
Height : 508 pixels
Display aspect ratio : 16:9
Frame rate mode : Constant
Frame rate : 23.976 fps
Color space : YUV
Chroma subsampling : 4:2:0
Bit depth : 8 bits
Scan type : Progressive
Bits/(Pixel*Frame) : 0.187
Stream size : 1.20 GiB (82%)
Title : Encoded by whip93
Writing library : x264 core 148 r2638 7599210
Encoding settings : cabac=1 / ref=12 / deblock=1:-3:-3 / analyse=0x3:0x133 / me=umh / subme=11 / psy=1 / psy_rd=1.00:0.08 / mixed_ref=1 / me_range=64 / chroma_me=1 / trellis=2 / 8x8dct=1 / cqm=0 / deadzone=21,11 / fast_pskip=0 / chroma_qp_offset=-6 / threads=12 / lookahead_threads=3 / sliced_threads=0 / nr=0 / decimate=1 / interlaced=0 / bluray_compat=0 / constrained_intra=0 / bframes=13 / b_pyramid=2 / b_adapt=2 / b_bias=0 / direct=1 / weightb=1 / open_gop=0 / weightp=2 / keyint=240 / keyint_min=23 / scenecut=40 / intra_refresh=0 / rc_lookahead=60 / rc=2pass / mbtree=1 / bitrate=2059 / ratetol=1.0 / qcomp=0.72 / qpmin=0 / qpmax=69 / qpstep=4 / cplxblur=20.0 / qblur=0.5 / vbv_maxrate=50000 / vbv_bufsize=62500 / nal_hrd=none / filler=0 / ip_ratio=1.40 / aq=1:0.80
Language : English
Default : Yes
Forced : No
Color range : Limited
Color primaries : BT.709
Transfer characteristics : BT.709
Matrix coefficients : BT.709
Audio #1
ID : 2
Format : AC-3
Format/Info : Audio Coding 3
Mode extension : CM (complete main)
Format settings, Endianness : Big
Codec ID : A_AC3
Duration : 1h 25mn
Bit rate mode : Constant
Bit rate : 192 Kbps
Channel(s) : 2 channels
Channel positions : Front: L R
Sampling rate : 48.0 KHz
Compression mode : Lossy
Stream size : 117 MiB (8%)
Title : DVO (SDI Media)
Language : Russian
Default : Yes
Forced : No
Audio #2
ID : 3
Format : AC-3
Format/Info : Audio Coding 3
Mode extension : CM (complete main)
Format settings, Endianness : Big
Codec ID : A_AC3
Duration : 1h 25mn
Bit rate mode : Constant
Bit rate : 192 Kbps
Channel(s) : 2 channels
Channel positions : Front: L R
Sampling rate : 48.0 KHz
Compression mode : Lossy
Stream size : 117 MiB (8%)
Title : Original
Language : English
Default : No
Forced : No
Text #1
ID : 4
Format : UTF-8
Codec ID : S_TEXT/UTF8
Codec ID/Info : UTF-8 Plain Text
Title : Forced
Language : Russian
Default : Yes
Forced : No
Text #2
ID : 5
Format : UTF-8
Codec ID : S_TEXT/UTF8
Codec ID/Info : UTF-8 Plain Text
Title : Full
Language : Russian
Default : No
Forced : No
Menu
00:00:00.000 : en:00:00:00.000
00:02:59.346 : en:00:02:59.346
00:09:12.552 : en:00:09:12.552
00:16:04.697 : en:00:16:04.697
00:24:12.584 : en:00:24:12.584
00:31:05.263 : en:00:31:05.263
00:38:19.030 : en:00:38:19.030
00:45:57.421 : en:00:45:57.421
00:53:53.797 : en:00:53:53.797
01:02:27.544 : en:01:02:27.544
01:09:47.050 : en:01:09:47.050
01:17:14.597 : en:01:17:14.597
01:23:37.012 : en:01:23:37.012

Скриншоты

-
Вы не можете начинать темы
Вы не можете отвечать на сообщения
Вы не можете редактировать свои сообщения
Вы не можете удалять свои сообщения
Вы не можете голосовать в опросах
Вы не можете прикреплять файлы к сообщениям
Вы можете скачивать файлы
!ВНИМАНИЕ!

Сайт не предоставляет электронные версии произведений, а занимается лишь коллекционированием и каталогизацией ссылок, присылаемых и публикуемых на форуме нашими читателями. Если вы являетесь правообладателем какого-либо представленного материала и не желаете, чтобы ссылка на него находилась в нашем каталоге, свяжитесь с нами, и мы незамедлительно удалим ее. Файлы для обмена на трекере предоставлены пользователями сайта, и администрация не несет ответственности за их содержание. Просьба не заливать файлы, защищенные авторскими правами, а также файлы нелегального содержания!

Искали программы, игры, дополнения, музыка mp3, аниме, аудио книги, журналы? Добро пожаловать на свободный торрент трекер Torrents, у нас можно скачать бесплатно, без смс и регистрации и прочих ограничений лучшие, отборные сборки программ, игр. Скачать торрентом не составит труда даже не опытному пользователю. Раздачи ежедневно обновляются, только лучшие и качественные раздачи, подробные описания и скриншоты. Огромная коллекция программ для работы со звуком, графикой, дизайном, а так же множество плагинов и инструментов к ним с подробной инструкцией и рекомендациями. Прошивки для навигаторов, карты. Разнообразные игры, для Windows, Linux. В коллекцие есть и старые игры любых жанров, Rpg, Action, Shooter, strategy Множество дополнений, модификаций, сценариев для популярных игр в жанре экш, рпг, гонки, стратегии, логические игры. Множество аддонов и сценариев для Microsoft Flight Simulator Большая коллекция книг, учебников. Если нет возможности купить печатное издание - смело скачивайте цифровую версию книги или, быть может, журнала. Не любите читать - можно загрузить бесплатно аудикнигу. Для веб дизайнеров и программистов так же найдется множество специализированного софта, таких как: редакторы с подсветкой, среды программирования, компоненты, системы управления базами данных, разнообразные скрипты и шаблоны. Не так давно у нас появился материал для автолюбителей и владельцев мото - оригинальные и неоригинальные каталоги запчастей, книги и журналы по ремонту и обслуживанию, видеоуроки, статьи по чип тюнингу, прошивкам. Процедура получения контента элементарная, достаточно просто скачать торрент файл и добавить его в загрузку в вашем торрент клиенте. Если у вас нет специального торрент клиента, вы можете его скачать у нас.