Особо опасен / Wanted (Тимур Бекмамбетов / Timur Bekmambetov) [2008, США, Германия, боевик, триллер, криминал, WEB-DLRip-AVC] [Open Matte] Dub + Sub Rus Eng + Original Eng 

Цитировать
Особо опасен / Wanted / Open Matte
Страна: США, Германия
Жанр: боевик, триллер, криминал
Год выпуска: 2008
Продолжительность: 01:50:00
Перевод: Профессиональный (дублированный)
Субтитры: русские, английские
Оригинальная аудиодорожка: английский
Режиссер: Тимур Бекмамбетов / Timur Bekmambetov
В ролях: Джеймс МакЭвой, Морган Фриман, Анджелина Джоли, Теренс Стэмп, Томас Кречманн, Коммон, Кристен Хагер, Марк Уоррен, Дэвид О`Хара, Константин Хабенский
Описание: Уэсли Гибсон — зануда и нытик, целыми днями торчащий в офисе. Босс его унижает, подружка ему изменяет. Его жизнь катится в никуда! Обнаружив, что отец, бросивший его в раннем детстве, зверски убит, Уэс оказывается втянут в тайное общество киллеров по названием «Братство». За его обучение берется опытная наставница Фокс, и этот когда-то прикованный к офисному креслу хлюпик развивает молниеносную реакцию и сверхчеловеческую скорость. Однако уже на первом задании Уэсли понимает: есть вещи посложнее, чем вершить судьбы других людей. Это — набраться храбрости и стать хозяином собственной жизни.
Доп. информация: Исходник с Amazon
Различия BD и WEB-DL - разное наполнение кадра - 16:9 (1.78:1) -> http://screenshotcomparison.com/comparison/115574
Звуковая дорожка с дублированным переводом взята под международную версию фильма
Фильмы в Fullscreen (4:3) и Open Matte (16:9) форматах
Сэмпл: http://sendfile.su/1357201
Качество видео: WEB-DLRip-AVC [Wanted.2008.Open.Matte.1080p.WEB-DL.2xRus.2xUkr.Eng.HDCLUB.mkv]
Формат видео: MKV
Видео: MPEG-4 AVC/H.264 / 2100 kbps / 1024x576 / 23.976 fps
Аудио: DUB (Rus) / AC3 / 6 ch / 384 kbps / 48 kHz
Аудио 2: Original (Eng) / AC3 / 6 ch / 384 kbps / 48 kHz - отдельно
Формат субтитров: softsub (SRT)
Доп. информация о субтитрах: русские (2x forced, 3x full), английские (full)
#Сохранены оригинальные чаптеры как на Blu-ray

Log

x264 [info]: frame I:1354 Avg QP:16.72 size: 74276
x264 [info]: frame P:44588 Avg QP:20.42 size: 20243
x264 [info]: frame B:112084 Avg QP:22.67 size: 6449

MediaInfo

General
Unique ID : 190950372714171428875106196166850993717 (0x8FA7B43DF20943A5BDF271B1D2F55E35)
Complete name : J:\Torrents\Готовые релизы\Особо опасен (2008) WEB-DLRip-AVC [Open Matte].mkv
Format : Matroska
Format version : Version 2
File size : 2.20 GiB
Duration : 1 h 50 min
Overall bit rate : 2 862 kb/s
Movie name : Особо опасен / Wanted (2008) [Open Matte]
Encoded date : UTC 2017-08-20 01:16:01
Writing application : mkvmerge v5.5.0 ('Healer') built on Apr 24 2012 23:47:03
Writing library : libebml v1.2.3 + libmatroska v1.3.0
Cover : Yes
Attachments : cover.jpg
Video
ID : 1
Format : AVC
Format/Info : Advanced Video Codec
Format profile : High@L3.1
Format settings, CABAC : Yes
Format settings, ReFrames : 8 frames
Codec ID : V_MPEG4/ISO/AVC
Duration : 1 h 50 min
Bit rate : 2 100 kb/s
Width : 1 024 pixels
Height : 576 pixels
Display aspect ratio : 16:9
Frame rate mode : Constant
Frame rate : 23.976 (24000/1001) FPS
Color space : YUV
Chroma subsampling : 4:2:0
Bit depth : 8 bits
Scan type : Progressive
Bits/(Pixel*Frame) : 0.148
Stream size : 1.57 GiB (71%)
Title : WEB-DLRip (AVC) / MPEG-4 AVC/H.264 / 2100 kbps / 1024x576 / 23.976 fps
Writing library : x264 core 146 r2538 121396c
Encoding settings : cabac=1 / ref=8 / deblock=1:0:0 / analyse=0x3:0x113 / me=umh / subme=10 / psy=1 / psy_rd=1.00:0.00 / mixed_ref=1 / me_range=32 / chroma_me=1 / trellis=2 / 8x8dct=1 / cqm=0 / deadzone=21,11 / fast_pskip=0 / chroma_qp_offset=-2 / threads=6 / lookahead_threads=1 / sliced_threads=0 / nr=0 / decimate=1 / interlaced=0 / bluray_compat=0 / constrained_intra=0 / bframes=9 / b_pyramid=2 / b_adapt=2 / b_bias=0 / direct=3 / weightb=1 / open_gop=0 / weightp=2 / keyint=250 / keyint_min=23 / scenecut=40 / intra_refresh=0 / rc_lookahead=50 / rc=2pass / mbtree=1 / bitrate=2100 / ratetol=1.0 / qcomp=0.60 / qpmin=0 / qpmax=69 / qpstep=4 / cplxblur=20.0 / qblur=0.5 / vbv_maxrate=14000 / vbv_bufsize=14000 / nal_hrd=none / filler=0 / ip_ratio=1.40 / aq=1:1.00
Language : English
Default : Yes
Forced : Yes
Audio #1
ID : 2
Format : AC-3
Format/Info : Audio Coding 3
Mode extension : CM (complete main)
Format settings, Endianness : Big
Codec ID : A_AC3
Duration : 1 h 50 min
Bit rate mode : Constant
Bit rate : 384 kb/s
Channel(s) : 6 channels
Channel positions : Front: L C R, Side: L R, LFE
Sampling rate : 48.0 kHz
Frame rate : 31.250 FPS (1536 spf)
Bit depth : 16 bits
Compression mode : Lossy
Stream size : 302 MiB (13%)
Title : DUB (Rus) / AC3 / 6 ch / 384 kbps / 48 kHz
Language : Russian
Default : Yes
Forced : Yes
Audio #2
ID : 3
Format : AC-3
Format/Info : Audio Coding 3
Mode extension : CM (complete main)
Format settings, Endianness : Big
Codec ID : A_AC3
Duration : 1 h 50 min
Bit rate mode : Constant
Bit rate : 384 kb/s
Channel(s) : 6 channels
Channel positions : Front: L C R, Side: L R, LFE
Sampling rate : 48.0 kHz
Frame rate : 31.250 FPS (1536 spf)
Bit depth : 16 bits
Compression mode : Lossy
Stream size : 302 MiB (13%)
Title : Original (Eng) / AC3 / 6 ch / 384 kbps / 48 kHz
Language : English
Default : No
Forced : No
Text #1
ID : 4
Format : UTF-8
Codec ID : S_TEXT/UTF8
Codec ID/Info : UTF-8 Plain Text
Title : Forced 1 (Rus) / S_TEXT/UTF8
Language : Russian
Default : Yes
Forced : Yes
Text #2
ID : 5
Format : UTF-8
Codec ID : S_TEXT/UTF8
Codec ID/Info : UTF-8 Plain Text
Title : Forced 2 (Rus) / S_TEXT/UTF8
Language : Russian
Default : No
Forced : No
Text #3
ID : 6
Format : UTF-8
Codec ID : S_TEXT/UTF8
Codec ID/Info : UTF-8 Plain Text
Title : Full 1 (Rus) / S_TEXT/UTF8
Language : Russian
Default : No
Forced : No
Text #4
ID : 7
Format : UTF-8
Codec ID : S_TEXT/UTF8
Codec ID/Info : UTF-8 Plain Text
Title : Full 2 (Rus) / S_TEXT/UTF8
Language : Russian
Default : No
Forced : No
Text #5
ID : 8
Format : UTF-8
Codec ID : S_TEXT/UTF8
Codec ID/Info : UTF-8 Plain Text
Title : Full 3 (Rus) / S_TEXT/UTF8
Language : Russian
Default : No
Forced : No
Text #6
ID : 9
Format : UTF-8
Codec ID : S_TEXT/UTF8
Codec ID/Info : UTF-8 Plain Text
Title : Full (Eng) / S_TEXT/UTF8
Language : English
Default : No
Forced : No
Menu
00:00:00.000 : en:01. The Fraternity
00:07:01.921 : en:02. Stressed Out
00:12:58.236 : en:03. Greatest Assassin
00:20:58.591 : en:04. One of Us
00:26:25.834 : en:05. I'm the Man
00:32:11.513 : en:06. In the Factory
00:37:30.373 : en:07. Feeling Good
00:42:04.689 : en:08. One By One
00:45:22.136 : en:09. Who Are You?
00:51:52.901 : en:10. Loom of Fate
00:56:23.839 : en:11. First Target
01:00:58.780 : en:12. Second Target
01:04:00.211 : en:13. A Message
01:09:42.637 : en:14. Meeting the Maker
01:13:32.033 : en:15. Off Track
01:20:23.777 : en:16. Perfect Weapon
01:27:10.684 : en:17. Kill Him
01:33:24.557 : en:18. Follow the Code
01:39:26.460 : en:19. Taking Control
01:42:22.053 : en:20. End Titles

Скриншот c названием фильма

Скриншоты

Вы не можете начинать темы
Вы не можете отвечать на сообщения
Вы не можете редактировать свои сообщения
Вы не можете удалять свои сообщения
Вы не можете голосовать в опросах
Вы не можете прикреплять файлы к сообщениям
Вы можете скачивать файлы
!ВНИМАНИЕ!

Сайт не предоставляет электронные версии произведений, а занимается лишь коллекционированием и каталогизацией ссылок, присылаемых и публикуемых на форуме нашими читателями. Если вы являетесь правообладателем какого-либо представленного материала и не желаете, чтобы ссылка на него находилась в нашем каталоге, свяжитесь с нами, и мы незамедлительно удалим ее. Файлы для обмена на трекере предоставлены пользователями сайта, и администрация не несет ответственности за их содержание. Просьба не заливать файлы, защищенные авторскими правами, а также файлы нелегального содержания!

Искали программы, игры, дополнения, музыка mp3, аниме, аудио книги, журналы? Добро пожаловать на свободный торрент трекер Torrents, у нас можно скачать бесплатно, без смс и регистрации и прочих ограничений лучшие, отборные сборки программ, игр. Скачать торрентом не составит труда даже не опытному пользователю. Раздачи ежедневно обновляются, только лучшие и качественные раздачи, подробные описания и скриншоты. Огромная коллекция программ для работы со звуком, графикой, дизайном, а так же множество плагинов и инструментов к ним с подробной инструкцией и рекомендациями. Прошивки для навигаторов, карты. Разнообразные игры, для Windows, Linux. В коллекцие есть и старые игры любых жанров, Rpg, Action, Shooter, strategy Множество дополнений, модификаций, сценариев для популярных игр в жанре экш, рпг, гонки, стратегии, логические игры. Множество аддонов и сценариев для Microsoft Flight Simulator Большая коллекция книг, учебников. Если нет возможности купить печатное издание - смело скачивайте цифровую версию книги или, быть может, журнала. Не любите читать - можно загрузить бесплатно аудикнигу. Для веб дизайнеров и программистов так же найдется множество специализированного софта, таких как: редакторы с подсветкой, среды программирования, компоненты, системы управления базами данных, разнообразные скрипты и шаблоны. Не так давно у нас появился материал для автолюбителей и владельцев мото - оригинальные и неоригинальные каталоги запчастей, книги и журналы по ремонту и обслуживанию, видеоуроки, статьи по чип тюнингу, прошивкам. Процедура получения контента элементарная, достаточно просто скачать торрент файл и добавить его в загрузку в вашем торрент клиенте. Если у вас нет специального торрент клиента, вы можете его скачать у нас.