Джек в стране чудес / Jack to Mame no Ki (Гисабуро Сугии / Gisaburo Sugii) [1974, Япония, приключения, семейный, музыкальный, VHSRip] [Советская прокатная копия] Dub (Довженко) 

Цитировать
Джек в стране чудес / Jack to Mame no Ki / ジャックと豆の木 [Советская прокатная копия]- Страна: Япония
Жанр: приключения, семейный, музыкальный
Год выпуска: 1974
Продолжительность: 01:27:17-Перевод: Профессиональный (дублированный) - Киностудия им. А. Довженко
Субтитры: нет-Режиссер: Гисабуро Сугии / Gisaburo Sugii / 杉井ギサブロー , 杉井儀三郎- | Релиз: -Описание: Вместо того, чтобы продать единственное имущество их бедной семьи — корову, которая больше не дает молока, Джек умудряется поменять ее на 5 волшебных бобов. Раздосадованная мать выбрасывает бесполезные бобы. Но за ночь они вырастают до небес и Джек вскарабкивается по стеблю вместе со своим верным псом Кросби.
Там за облаками в огромном замке он встречает прекрасную принцессу Маргарет, которая, околдованная чарами злой ведьмы Гекубы, думает, что влюблена в туповатого, злобного и отвратительного великана Тьюлипа, сына Гекубы.
С помощью обитателей замка, превращенных злой ведьмой в мышей, Джек находит сказочную сокровищницу и разрабатывает дерзкий план — сокрушить колдовские силы Гекубы и вернуться домой с богатством.-Семпл: http://sendfile.su/1357624-Тип релиза: VHSRip
Контейнер: MPG
Видео: 720x576 (4:3) @ 768x576, 25.000 fps, MPEG-2 Video, ~6171 Kbps, 0.595 bits/pixel
Аудио: Русский, 48.0 KHz, AC3, 2 ch, 256 Kbps

MediaInfo

General
Complete name : Джек в стране чудес 1974 Dub Довженко.mpg
Format : MPEG-PS
File size : 4.00 GiB
Duration : 1 h 27 min
Overall bit rate mode : Variable
Overall bit rate : 6 558 kb/s
Video
ID : 224 (0xE0)
Format : MPEG Video
Format version : Version 2
Format profile : Main@Main
Format settings, BVOP : Yes
Format settings, Matrix : Default
Format settings, GOP : M=3, N=12
Format settings, picture structure : Frame
Duration : 1 h 27 min
Bit rate mode : Variable
Bit rate : 6 171 kb/s
Maximum bit rate : 9 800 kb/s
Width : 720 pixels
Height : 576 pixels
Display aspect ratio : 4:3
Frame rate : 25.000 FPS
Standard : PAL
Color space : YUV
Chroma subsampling : 4:2:0
Bit depth : 8 bits
Scan type : Interlaced
Scan order : Top Field First
Compression mode : Lossy
Bits/(Pixel*Frame) : 0.595
Time code of first frame : 00:00:00:00
Time code source : Group of pictures header
GOP, Open/Closed : Open
GOP, Open/Closed of first frame : Closed
Stream size : 3.76 GiB (94%)
Color primaries : BT.601 PAL
Transfer characteristics : BT.470 System B, BT.470 System G
Matrix coefficients : BT.470 System B, BT.470 System G
Audio
ID : 189 (0xBD)-128 (0x80)
Format : AC-3
Format/Info : Audio Coding 3
Format settings, Endianness : Big
Muxing mode : DVD-Video
Duration : 1 h 27 min
Bit rate mode : Constant
Bit rate : 256 kb/s
Channel(s) : 2 channels
Channel positions : Front: L R
Sampling rate : 48.0 kHz
Frame rate : 31.250 FPS (1536 SPF)
Bit depth : 16 bits
Compression mode : Lossy
Stream size : 160 MiB (4%)
Service kind : Complete Main
Вы не можете начинать темы
Вы не можете отвечать на сообщения
Вы не можете редактировать свои сообщения
Вы не можете удалять свои сообщения
Вы не можете голосовать в опросах
Вы не можете прикреплять файлы к сообщениям
Вы можете скачивать файлы
!ВНИМАНИЕ!

Сайт не предоставляет электронные версии произведений, а занимается лишь коллекционированием и каталогизацией ссылок, присылаемых и публикуемых на форуме нашими читателями. Если вы являетесь правообладателем какого-либо представленного материала и не желаете, чтобы ссылка на него находилась в нашем каталоге, свяжитесь с нами, и мы незамедлительно удалим ее. Файлы для обмена на трекере предоставлены пользователями сайта, и администрация не несет ответственности за их содержание. Просьба не заливать файлы, защищенные авторскими правами, а также файлы нелегального содержания!

Искали программы, игры, дополнения, музыка mp3, аниме, аудио книги, журналы? Добро пожаловать на свободный торрент трекер Torrents, у нас можно скачать бесплатно, без смс и регистрации и прочих ограничений лучшие, отборные сборки программ, игр. Скачать торрентом не составит труда даже не опытному пользователю. Раздачи ежедневно обновляются, только лучшие и качественные раздачи, подробные описания и скриншоты. Огромная коллекция программ для работы со звуком, графикой, дизайном, а так же множество плагинов и инструментов к ним с подробной инструкцией и рекомендациями. Прошивки для навигаторов, карты. Разнообразные игры, для Windows, Linux. В коллекцие есть и старые игры любых жанров, Rpg, Action, Shooter, strategy Множество дополнений, модификаций, сценариев для популярных игр в жанре экш, рпг, гонки, стратегии, логические игры. Множество аддонов и сценариев для Microsoft Flight Simulator Большая коллекция книг, учебников. Если нет возможности купить печатное издание - смело скачивайте цифровую версию книги или, быть может, журнала. Не любите читать - можно загрузить бесплатно аудикнигу. Для веб дизайнеров и программистов так же найдется множество специализированного софта, таких как: редакторы с подсветкой, среды программирования, компоненты, системы управления базами данных, разнообразные скрипты и шаблоны. Не так давно у нас появился материал для автолюбителей и владельцев мото - оригинальные и неоригинальные каталоги запчастей, книги и журналы по ремонту и обслуживанию, видеоуроки, статьи по чип тюнингу, прошивкам. Процедура получения контента элементарная, достаточно просто скачать торрент файл и добавить его в загрузку в вашем торрент клиенте. Если у вас нет специального торрент клиента, вы можете его скачать у нас.