Бэтмен: Маска Фантазма / Batman: Mask of the Phantasm (Эрик Радомски, Брюс В. Тимм / Eric Radomski, Bruce W. Timm) [1993, анимация, детектив, криминал, триллер, мелодрама, HDRip-AVC] DVO + AVO + Rus Sub [Widescreen] 

Цитировать
Бэтмен: Маска Фантазма / Batman: Mask of the Phantasm
Год выпуска: 1993
Страна: США
Жанр: анимация, детектив, криминал, триллер, мелодрама
Продолжительность: 01:13:18
Перевод: 1) авторский одноголосный - Вартан Дохалов,
2) двухголосный - Петр Гланц и Инна Королева (перевод текста - релиз-группа 'DisneyJazz'),
3) авторский одноголосный - Антон Алексеев
Русские субтитры: есть
Режиссер: Эрик Радомски, Брюс В. Тимм
В ролях: Кевин Конрой, Дана Дилэйни, Марк Хэмилл, Харт Бокнер, Стейси Кич, Эйб Вигода, Дик Миллер, Джон П. Райан, Ефрем Цимбалист мл., Боб Хатингс, Роберт Костанцо и другие
Описание:
В Готэме появляется новый борец с преступностью - Фантазм, который, в отличие от Бэтмена, попросту убивает уголовников. От его руки гибнут мафиозные боссы, являющиеся членами старой банды, орудовавшей в городе еще до появления Человека-Летучей Мыши. Главарь банды - именно он является следующей мишенью Фантазма. Идя по следу убийцы, Бэтмен приходит к выводу, что тот связан с событиями из его прошлого.-Качество: DVDRip
Формат: .avi
Видео кодек: XviD
Видео: XviD, 720x416 (1.73:1), 2117 kbps, 25fps, 0.283 bit/pixel
Аудио кодек: AC3 ACM Codec
Аудио 1: AC3 Dolby Digital, stereo/2.0 (L,R), CBR 192 kbps, 48000Hz (русский AVO - Вартан Дохалов)
Аудио 2: AC3 Dolby Digital, stereo/2.0 (L,R), CBR 160 kbps, 48000Hz (русский DVO - Петр Гланц и Инна Королева)
Аудио 3: AC3 Dolby Digital, stereo/2.0 (L,R), CBR 160 kbps, 48000Hz (русский AVO - Антон Алексеев)
Аудио 4: AC3 Dolby Digital, stereo/2.0 (L,R), CBR 192 kbps, 48000Hz (оригинальный английский)-Представляем для ознакомления:
sample 1 - http:// СПАМ
sample 2 - http:// СПАМ-

Mediainfo

GeneralComplete name                    : F:\Upload\Batman - Mask of Phantasm_DVD-Rip\Бэтмен - Маска Фантазма (Batman - Mask of the Phantasm).aviFormat                           : AVIFormat/Info                      : Audio Video InterleaveFile size                        : 1.46 GiBDuration                         : 1h 13mnOverall bit rate                 : 2 845 KbpsWriting application              : VirtualDubModRus 1.5.10.2 (build 2542/release)Writing library                  : VirtualDubMod build 2542/release
VideoID : 0Format : MPEG-4 VisualFormat profile : Advanced Simple@L5Format settings, BVOP : YesFormat settings, QPel : NoFormat settings, GMC : No warppointsFormat settings, Matrix : Default (H.263)Codec ID : XVIDCodec ID/Hint : XviDDuration : 1h 13mnBit rate : 2 117 KbpsWidth : 720 pixelsHeight : 416 pixelsDisplay aspect ratio : 16:9Frame rate : 25.000 fpsColor space : YUVChroma subsampling : 4:2:0Bit depth : 8 bitsScan type : ProgressiveBits/(Pixel*Frame) : 0.283Stream size : 1.08 GiB (74%)Writing library : XviD 1.2.1 (UTC 2008-12-04)
Audio #1ID : 1Format : AC-3Format/Info : Audio Coding 3Mode extension : CM (complete main)Codec ID : 2000Duration : 1h 13mnBit rate mode : ConstantBit rate : 192 KbpsChannel(s) : 2 channelsChannel positions : Front: L RSampling rate : 48.0 KHzStream size : 101 MiB (7%)Alignment : Split accross interleavesInterleave, duration : 40 ms (1.00 video frame)Interleave, preload duration : 500 ms
Audio #2ID : 2Format : AC-3Format/Info : Audio Coding 3Mode extension : CM (complete main)Codec ID : 2000Duration : 1h 13mnBit rate mode : ConstantBit rate : 160 KbpsChannel(s) : 2 channelsChannel positions : Front: L RSampling rate : 48.0 KHzStream size : 83.9 MiB (6%)Alignment : Split accross interleavesInterleave, duration : 40 ms (1.00 video frame)Interleave, preload duration : 500 ms
Audio #3ID : 3Format : AC-3Format/Info : Audio Coding 3Mode extension : CM (complete main)Codec ID : 2000Duration : 1h 13mnBit rate mode : ConstantBit rate : 160 KbpsChannel(s) : 2 channelsChannel positions : Front: L RSampling rate : 48.0 KHzStream size : 83.9 MiB (6%)Alignment : Split accross interleavesInterleave, duration : 40 ms (1.00 video frame)Interleave, preload duration : 500 ms
Audio #4ID : 4Format : AC-3Format/Info : Audio Coding 3Format profile : Dolby DigitalMode extension : CM (complete main)Codec ID : 2000Duration : 1h 13mnBit rate mode : ConstantBit rate : 192 KbpsChannel(s) : 2 channelsChannel positions : Front: L RSampling rate : 48.0 KHzStream size : 101 MiB (7%)Alignment : Split accross interleavesInterleave, duration : 40 ms (1.00 video frame)Interleave, preload duration : 500 ms

Скриншоты



-Дополнительная информация:
-DVD-Rip сделан из лицензированного 'DVD-5 PAL';
-Автор DVD-rip'а - я, т.е. - Romych;
-Не рекомендуется к просмотру лицам, не достигшим 13 лет;
-Оригинальный саундтрек можно скачать этой раздаче (большое спасибо medvezhonokkkk);
-Номинирован на 'Annie Awards' в 1994 году в категории "Лучший Анимационный Фильм"/"Best Animated Film";
-Фантазм - персонаж, созданный специально для анимационного полнометражного фильма, в комиксах не встречается;
-Полет камеры среди небоскребов при начальных титрах, сделанный на компьютере, первоначально предполагали
использовать для мультсериала, но это не было сделано;
-Мисс Бэмби, в адрес которой отпускает ироничный комментарий Альфред на вечеринке, упоминалась в первом эпизоде
BTAS – "On Leather Wings", существует информация, что Бэмби озвучила Арлин Соркин (в мультсериале озвучивает персонажа Харли Куинн);
-На экране компьютера в Бэтпещере появляются фамилии Адамс и О’Нил - это знаменитый дуэт, работавший над комиксами
о Рыцаре Ночи в 70-х. Другая пара имен на том же экране: Пакетт и Петерсон - напоминание о Келли Пакетте и Скотте Петерсоне,
создателях BTAS-комиксов;
-Эйб Вигода, озвучивший Валестру, играл гангстера Сальваторе Тессио в первом “Крестном отце”;
-1994 году была создана комикс-адаптация полнометражного анимационного фильма, но с изменениями в плане сцен драк
и некоторых диалогов; автор Келли Пакетт, художник Майк Паробек.-Приятного Вам просмотра
Вы не можете начинать темы
Вы не можете отвечать на сообщения
Вы не можете редактировать свои сообщения
Вы не можете удалять свои сообщения
Вы не можете голосовать в опросах
Вы не можете прикреплять файлы к сообщениям
Вы можете скачивать файлы
!ВНИМАНИЕ!

Сайт не предоставляет электронные версии произведений, а занимается лишь коллекционированием и каталогизацией ссылок, присылаемых и публикуемых на форуме нашими читателями. Если вы являетесь правообладателем какого-либо представленного материала и не желаете, чтобы ссылка на него находилась в нашем каталоге, свяжитесь с нами, и мы незамедлительно удалим ее. Файлы для обмена на трекере предоставлены пользователями сайта, и администрация не несет ответственности за их содержание. Просьба не заливать файлы, защищенные авторскими правами, а также файлы нелегального содержания!

Искали программы, игры, дополнения, музыка mp3, аниме, аудио книги, журналы? Добро пожаловать на свободный торрент трекер Torrents, у нас можно скачать бесплатно, без смс и регистрации и прочих ограничений лучшие, отборные сборки программ, игр. Скачать торрентом не составит труда даже не опытному пользователю. Раздачи ежедневно обновляются, только лучшие и качественные раздачи, подробные описания и скриншоты. Огромная коллекция программ для работы со звуком, графикой, дизайном, а так же множество плагинов и инструментов к ним с подробной инструкцией и рекомендациями. Прошивки для навигаторов, карты. Разнообразные игры, для Windows, Linux. В коллекцие есть и старые игры любых жанров, Rpg, Action, Shooter, strategy Множество дополнений, модификаций, сценариев для популярных игр в жанре экш, рпг, гонки, стратегии, логические игры. Множество аддонов и сценариев для Microsoft Flight Simulator Большая коллекция книг, учебников. Если нет возможности купить печатное издание - смело скачивайте цифровую версию книги или, быть может, журнала. Не любите читать - можно загрузить бесплатно аудикнигу. Для веб дизайнеров и программистов так же найдется множество специализированного софта, таких как: редакторы с подсветкой, среды программирования, компоненты, системы управления базами данных, разнообразные скрипты и шаблоны. Не так давно у нас появился материал для автолюбителей и владельцев мото - оригинальные и неоригинальные каталоги запчастей, книги и журналы по ремонту и обслуживанию, видеоуроки, статьи по чип тюнингу, прошивкам. Процедура получения контента элементарная, достаточно просто скачать торрент файл и добавить его в загрузку в вашем торрент клиенте. Если у вас нет специального торрент клиента, вы можете его скачать у нас.