Вызов Шарпа / Sharpe`s Challenge. Фильм 15 (Том Клегг / Tom Clegg) [2006, Великобритания, военный, исторический, приключения] 

Цитировать
Вызов Шарпа / Sharpe`s Challenge
Год выпуска: 2006
Страна: Великобритания
Жанр: военный, исторический, приключения
Продолжительность: 2:17:58
Перевод: любительский (одноголосый) Вадим Белов
Русские субтитры: нет
Режиссёр: Том Клегг / Tom Clegg
В ролях: Шон Бин, Дара О`Майли, Тоби Стефенс, Падма Лакшми, Орелен Рекоин, Люси Браун, Майкл Кокрейн, Али Хан, Питер-Хьюго Дейли, Тьери Ханцисс, Каран Пантаки, Шрути Виас, Питер Саймонд, Грэхем МакТавиш, Гэри Даннингтон
Описание: 1817 год. Полковника в отставке Ричарда Шарпа вызывает Веллингтон. В Индии распоясался один маленький Махараджа, довольно сильно мешающим интересам Англии. Шарпу, как знакомому с данным регионом, предлагают отправиться туда с разведывательной миссией. Сначала он отказывается, но один нюанс заставляет изменить решение — пропавший там полгода назад агент — это никто иной как Патрик Харпер.
Доп. информация: Пятнадцатый фильм, качество чуть хуже чем у DVD5Формат: AVI
Видео: XviD, 720x480 (1.50:1), 29.970 fps, 949 kbps
Аудио: MP3, 44.1 kHz, 128 kbps, 2 ch

MediaInfo

Общее
Полное имя : Фильм 15 Вызов Шарпа.avi
Формат : AVI
Формат/Информация : Audio Video Interleave
Размер файла : 1,05 Гбайт
Продолжительность : 2 ч. 17 м.
Общий поток : 1089 Кбит/сек
Видео
Идентификатор : 0
Формат : MPEG-4 Visual
Профиль формата : Advanced Simple@L5
Параметр BVOP формата : 2
Параметр QPel формата : Нет
Параметр GMC формата : Без точки перехода
Параметр матрицы формата : Default (H.263)
Режим смешивания : Сжатый битовый поток
Идентификатор кодека : XVID
Идентификатор кодека/Подсказка : XviD
Продолжительность : 2 ч. 17 м.
Битрейт : 949 Кбит/сек
Ширина : 720 пикселей
Высота : 480 пикселей
Соотношение сторон : 3:2
Частота кадров : 29,970 кадров/сек
Стандарт вещания : NTSC
Цветовое пространство : YUV
Субдискретизация насыщенности : 4:2:0
Битовая глубина : 8 бит
Тип развёртки : Прогрессивная
Метод сжатия : С потерями
Бит/(Пиксели*Кадры) : 0.092
Размер потока : 936 Мбайт (87%)
Библиотека кодирования : XviD 1.2.0SMP (UTC 2006-01-08)
Аудио
Идентификатор : 1
Формат : MPEG Audio
Версия формата : Version 1
Профиль формата : Layer 3
Идентификатор кодека : 55
Идентификатор кодека/Подсказка : MP3
Продолжительность : 2 ч. 17 м.
Вид битрейта : Постоянный
Битрейт : 128 Кбит/сек
Каналы : 2 канала
Частота : 44,1 КГц
Метод сжатия : С потерями
Задержка видео : 26 мс.
Размер потока : 126 Мбайт (12%)
Выравнивание : Разделение по промежуткам
Продолжительность промежутка : 33 мс. (1,00 видеокадр)
Заголовок : Audio Stream

Скриншоты

Внимание! Торрент-файл перезалит 24.08.2017 без изменения содержимого раздачи в связи с просьбой администрации снять флаг «приватная раздача». Скачавшим ранее просьба перекачать торрент-файл, перехешировать содержимое и присоединиться к раздаче.
Вы не можете начинать темы
Вы не можете отвечать на сообщения
Вы не можете редактировать свои сообщения
Вы не можете удалять свои сообщения
Вы не можете голосовать в опросах
Вы не можете прикреплять файлы к сообщениям
Вы можете скачивать файлы
!ВНИМАНИЕ!

Сайт не предоставляет электронные версии произведений, а занимается лишь коллекционированием и каталогизацией ссылок, присылаемых и публикуемых на форуме нашими читателями. Если вы являетесь правообладателем какого-либо представленного материала и не желаете, чтобы ссылка на него находилась в нашем каталоге, свяжитесь с нами, и мы незамедлительно удалим ее. Файлы для обмена на трекере предоставлены пользователями сайта, и администрация не несет ответственности за их содержание. Просьба не заливать файлы, защищенные авторскими правами, а также файлы нелегального содержания!

Искали программы, игры, дополнения, музыка mp3, аниме, аудио книги, журналы? Добро пожаловать на свободный торрент трекер Torrents, у нас можно скачать бесплатно, без смс и регистрации и прочих ограничений лучшие, отборные сборки программ, игр. Скачать торрентом не составит труда даже не опытному пользователю. Раздачи ежедневно обновляются, только лучшие и качественные раздачи, подробные описания и скриншоты. Огромная коллекция программ для работы со звуком, графикой, дизайном, а так же множество плагинов и инструментов к ним с подробной инструкцией и рекомендациями. Прошивки для навигаторов, карты. Разнообразные игры, для Windows, Linux. В коллекцие есть и старые игры любых жанров, Rpg, Action, Shooter, strategy Множество дополнений, модификаций, сценариев для популярных игр в жанре экш, рпг, гонки, стратегии, логические игры. Множество аддонов и сценариев для Microsoft Flight Simulator Большая коллекция книг, учебников. Если нет возможности купить печатное издание - смело скачивайте цифровую версию книги или, быть может, журнала. Не любите читать - можно загрузить бесплатно аудикнигу. Для веб дизайнеров и программистов так же найдется множество специализированного софта, таких как: редакторы с подсветкой, среды программирования, компоненты, системы управления базами данных, разнообразные скрипты и шаблоны. Не так давно у нас появился материал для автолюбителей и владельцев мото - оригинальные и неоригинальные каталоги запчастей, книги и журналы по ремонту и обслуживанию, видеоуроки, статьи по чип тюнингу, прошивкам. Процедура получения контента элементарная, достаточно просто скачать торрент файл и добавить его в загрузку в вашем торрент клиенте. Если у вас нет специального торрент клиента, вы можете его скачать у нас.