Подростковая злоба / Подростковый страх / Teenage Angst (Томас Штубер / Thomas Stuber) [2008, Германия, драма, DVDRip] AVO (Кузнецов) + Original + Eng sub 

Цитировать
Подростковая злоба / Подростковый страх / Teenage Angst
Год выпуска: 2008
Страна: Германия
Жанр: драма
Продолжительность: 1:06:21
Перевод: Профессиональный (одноголосый) - Кузнецов
Русские субтитры: нет
Субтитры: английские (отключаемые, srt)
Режиссер: Томас Штубер / Thomas Stuber
В ролях: Франц Динда, Никлас Корт, Януш Кочай, Майкл Гинсбург, Штефани Шёнфельд, Михаэль Швайгхёфер, Керстин Де Ана
Описание: Фильм рассказывает о группе подростков, об их насилии в закрытой школе над такими же, как они, о подростковой агрессии. Все 4 парня, главных героев фильма, - из обеспеченных семей, учатся в привилегированной школе в Германии, и сходятся вместе чтобы образовать что-то вроде банды, со своими сексуальными ритуалами, и их игры становятся все опаснее. Как обычно и бывает, более сильные мальчишки доминируют над слабыми, обижают и унижают их...
Доп. информация: Русская озвучка взята с раздачи: http://rutracker.org/forum/viewtopic.php?t=2565547 (из релиза сайта "Гейфильмов.нет")
Отличия от вышеупомянутой раздачи: меньший размер, выше разрешение, наличие немецкой аудиодорожки, отсутствие интерлейса, отсутствие периодически бегущей строки на треть экрана с рекламой сайта.
Качество: DVDRip
Формат: MKV
Видео кодек: DivX
Аудио кодек: MP3
Видео: DivX 5, 720х350 (анаморф.), AR 2,35:1, 29.970 fps, 1093 Kbps
Аудио: 1) Russian mp3 stereo 48kHz 128kbps avg. 2) Deutsch mp3 stereo 48kHz 128kbps const.

Скриншоты для сравнения:

от Epicanthus:

Моя:

от Epicanthus:

Моя:

от Epicanthus:

Моя:

Mediainfo

malky@malky-desktop:/media/d/Downloads/Torrent/Teenage Angst$ mediainfo Teenage_Angst.mkv
General
Complete name : Teenage_Angst.mkv
Format : Matroska
File size : 643 MiB
Duration : 1h 6mn
Overall bit rate : 1 355 Kbps
Encoded date : UTC 2009-12-27 07:03:05
Writing application : mkvmerge v2.9.8 ('C'est le bon') built on Aug 19 2009 17:00:13
Writing library : libebml v0.7.7 + libmatroska v0.8.1
Video
ID : 1
Format : MPEG-4 Visual
Format settings, BVOP : Yes
Format settings, QPel : No
Format settings, GMC : No warppoints
Format settings, Matrix : Default (H.263)
Codec ID : DX50
Codec ID/Hint : DivX 5
Duration : 1h 6mn
Bit rate : 1 069 Kbps
Width : 720 pixels
Height : 350 pixels
Display aspect ratio : 2.35:1
Original display aspect ratio : 2.057
Frame rate : 29.970 fps
Resolution : 24 bits
Colorimetry : 4:2:0
Scan type : Progressive
Bits/(Pixel*Frame) : 0.142
Stream size : 507 MiB (79%)
Writing library : DivX 6.8.5 (UTC 2009-08-20)
Audio #1
ID : 2
Format : MPEG Audio
Format version : Version 1
Format profile : Layer 3
Format_Settings_Mode : Joint stereo / MS Stereo
Codec ID : A_MPEG/L3
Codec ID/Hint : MP3
Duration : 1h 6mn
Bit rate mode : Variable
Bit rate : 130 Kbps
Nominal bit rate : 128 Kbps
Channel(s) : 2 channels
Sampling rate : 48.0 KHz
Resolution : 16 bits
Stream size : 61.9 MiB (10%)
Writing library : LAME3.98r
Encoding settings : -m j -V 4 -q 3 -lowpass 17 --abr 128
Language : Russian
Audio #2
ID : 3
Format : MPEG Audio
Format version : Version 1
Format profile : Layer 3
Format_Settings_Mode : Joint stereo / MS Stereo
Codec ID : A_MPEG/L3
Codec ID/Hint : MP3
Duration : 1h 6mn
Bit rate mode : Constant
Bit rate : 128 Kbps
Channel(s) : 2 channels
Sampling rate : 48.0 KHz
Resolution : 16 bits
Stream size : 60.8 MiB (9%)
Writing library : LAME3.98.2
Language : German
Text
ID : 4
Format : UTF-8
Codec ID : S_TEXT/UTF8
Codec ID/Info : UTF-8 Plain Text
Language : English

Скриншоты (как есть) - выглядят растянутыми, но на экране пропорции соблюдены (для оценки качества видеодорожки)






Скриншоты с плеера (при проигрывании):


Внимание! Торрент перезалит ( материал пересобран в mkv с коррекцией aspect ratio)
Файл может не воспроизводиться на "железных" плеерах.
Вы не можете начинать темы
Вы не можете отвечать на сообщения
Вы не можете редактировать свои сообщения
Вы не можете удалять свои сообщения
Вы не можете голосовать в опросах
Вы не можете прикреплять файлы к сообщениям
Вы можете скачивать файлы
!ВНИМАНИЕ!

Сайт не предоставляет электронные версии произведений, а занимается лишь коллекционированием и каталогизацией ссылок, присылаемых и публикуемых на форуме нашими читателями. Если вы являетесь правообладателем какого-либо представленного материала и не желаете, чтобы ссылка на него находилась в нашем каталоге, свяжитесь с нами, и мы незамедлительно удалим ее. Файлы для обмена на трекере предоставлены пользователями сайта, и администрация не несет ответственности за их содержание. Просьба не заливать файлы, защищенные авторскими правами, а также файлы нелегального содержания!

Искали программы, игры, дополнения, музыка mp3, аниме, аудио книги, журналы? Добро пожаловать на свободный торрент трекер Torrents, у нас можно скачать бесплатно, без смс и регистрации и прочих ограничений лучшие, отборные сборки программ, игр. Скачать торрентом не составит труда даже не опытному пользователю. Раздачи ежедневно обновляются, только лучшие и качественные раздачи, подробные описания и скриншоты. Огромная коллекция программ для работы со звуком, графикой, дизайном, а так же множество плагинов и инструментов к ним с подробной инструкцией и рекомендациями. Прошивки для навигаторов, карты. Разнообразные игры, для Windows, Linux. В коллекцие есть и старые игры любых жанров, Rpg, Action, Shooter, strategy Множество дополнений, модификаций, сценариев для популярных игр в жанре экш, рпг, гонки, стратегии, логические игры. Множество аддонов и сценариев для Microsoft Flight Simulator Большая коллекция книг, учебников. Если нет возможности купить печатное издание - смело скачивайте цифровую версию книги или, быть может, журнала. Не любите читать - можно загрузить бесплатно аудикнигу. Для веб дизайнеров и программистов так же найдется множество специализированного софта, таких как: редакторы с подсветкой, среды программирования, компоненты, системы управления базами данных, разнообразные скрипты и шаблоны. Не так давно у нас появился материал для автолюбителей и владельцев мото - оригинальные и неоригинальные каталоги запчастей, книги и журналы по ремонту и обслуживанию, видеоуроки, статьи по чип тюнингу, прошивкам. Процедура получения контента элементарная, достаточно просто скачать торрент файл и добавить его в загрузку в вашем торрент клиенте. Если у вас нет специального торрент клиента, вы можете его скачать у нас.