Планета людей / People: A Musical Celebration (Владлен Барбэ, Алексей Алексеев, Джошуа М. Грин / Joshua M. Greene, Светлана Гроссу, Олег Кузовков, Дмитрий Наумов, Игорь Вейштагин, Валерий Жирнов) [1995, США, Россия, музыкальный, VHSRip > DVD] DVO 

Цитировать
Планета людей / People: A Musical Celebration- Страна: США, Россия
Жанр: музыкальный мультфильм, семейный
Год выпуска: 1995
Продолжительность: 00:48:58-Перевод: Профессиональный (двухголосый закадровый) + перевод песен субтитрами
Субтитры: есть (только на песни), вшитые-Режиссеры: Владлен Барбэ, Алексей Алексеев, Джошуа М. Грин / Joshua M. Greene, Светлана Гроссу, Олег Кузовков, Дмитрий Наумов, Игорь Вейштагин, Валерий Жирнов
Роли озвучивали: Хьюм Кронин, Саша Гроним, Джеймс Эрл Джонс, Даи Даи Минг, Офелия Эссьен-Описание: По мотивам книги Питера Спайера. Дедушка с любимой внучкой отправляется в волшебное путешествие, открывая для себя удивительный мир людей. Ребенок с радостью узнает, что самое красивое зрелище на свете - это наша планета, и понимает, что человек - самая интересная загадка.-Доп. информация: VHS кассету предоставил truf666,оцифровал bora86bora. Спасибо!- | Релиз: -Семпл: http://sendfile.su/1347209-Тип релиза: VHSRip
Формат: DVD-Video
Видео: 720x576 (4:3) @ 768x576, 25.000 fps, MPEG-2 Video, ~8266 Kbps, 0.797 bits/pixel
Аудио: Русский, 48.0 KHz, PCM, 2 ch, 1536 Kbps

DVDInfo

Title: Планета людей VHS
Size: 3.42 Gb ( 3 587 746,00 KBytes ) - DVD-5
Enabled regions: 1, 2, 3, 4, 5, 6, 7, 8
VTS_01 :
Play Length: 00:48:58
Video: PAL 4:3 (720x576) VBR
Audio:
Russian (LinearPCM, 2 ch)

MediaInfo

General
Complete name : \Планета людей VHS\VIDEO_TS\VTS_01_1.VOB
Format : MPEG-PS
File size : 1 024 MiB
Duration : 14 min 18 s
Overall bit rate mode : Variable
Overall bit rate : 10.0 Mb/s
Video
ID : 224 (0xE0)
Format : MPEG Video
Format version : Version 2
Format profile : Main@Main
Format settings, BVOP : Yes
Format settings, Matrix : Custom
Format settings, GOP : M=3, N=15
Format settings, picture structure : Frame
Duration : 14 min 18 s
Bit rate mode : Variable
Bit rate : 8 300 kb/s
Width : 720 pixels
Height : 576 pixels
Display aspect ratio : 4:3
Frame rate : 25.000 FPS
Standard : PAL
Color space : YUV
Chroma subsampling : 4:2:0
Bit depth : 8 bits
Scan type : Interlaced
Scan order : Top Field First
Compression mode : Lossy
Bits/(Pixel*Frame) : 0.801
Time code of first frame : 00:00:00:00
Time code source : Group of pictures header
GOP, Open/Closed : Open
GOP, Open/Closed of first frame : Closed
Stream size : 846 MiB (83%)
Audio
ID : 189 (0xBD)-160 (0xA0)
Format : PCM
Format settings, Endianness : Big
Format settings, Sign : Signed
Muxing mode : DVD-Video
Duration : 14 min 18 s
Bit rate mode : Constant
Bit rate : 1 536 kb/s
Channel(s) : 2 channels
Sampling rate : 48.0 kHz
Bit depth : 16 bits
Stream size : 157 MiB (15%)
Menu
Вы не можете начинать темы
Вы не можете отвечать на сообщения
Вы не можете редактировать свои сообщения
Вы не можете удалять свои сообщения
Вы не можете голосовать в опросах
Вы не можете прикреплять файлы к сообщениям
Вы можете скачивать файлы
!ВНИМАНИЕ!

Сайт не предоставляет электронные версии произведений, а занимается лишь коллекционированием и каталогизацией ссылок, присылаемых и публикуемых на форуме нашими читателями. Если вы являетесь правообладателем какого-либо представленного материала и не желаете, чтобы ссылка на него находилась в нашем каталоге, свяжитесь с нами, и мы незамедлительно удалим ее. Файлы для обмена на трекере предоставлены пользователями сайта, и администрация не несет ответственности за их содержание. Просьба не заливать файлы, защищенные авторскими правами, а также файлы нелегального содержания!

Искали программы, игры, дополнения, музыка mp3, аниме, аудио книги, журналы? Добро пожаловать на свободный торрент трекер Torrents, у нас можно скачать бесплатно, без смс и регистрации и прочих ограничений лучшие, отборные сборки программ, игр. Скачать торрентом не составит труда даже не опытному пользователю. Раздачи ежедневно обновляются, только лучшие и качественные раздачи, подробные описания и скриншоты. Огромная коллекция программ для работы со звуком, графикой, дизайном, а так же множество плагинов и инструментов к ним с подробной инструкцией и рекомендациями. Прошивки для навигаторов, карты. Разнообразные игры, для Windows, Linux. В коллекцие есть и старые игры любых жанров, Rpg, Action, Shooter, strategy Множество дополнений, модификаций, сценариев для популярных игр в жанре экш, рпг, гонки, стратегии, логические игры. Множество аддонов и сценариев для Microsoft Flight Simulator Большая коллекция книг, учебников. Если нет возможности купить печатное издание - смело скачивайте цифровую версию книги или, быть может, журнала. Не любите читать - можно загрузить бесплатно аудикнигу. Для веб дизайнеров и программистов так же найдется множество специализированного софта, таких как: редакторы с подсветкой, среды программирования, компоненты, системы управления базами данных, разнообразные скрипты и шаблоны. Не так давно у нас появился материал для автолюбителей и владельцев мото - оригинальные и неоригинальные каталоги запчастей, книги и журналы по ремонту и обслуживанию, видеоуроки, статьи по чип тюнингу, прошивкам. Процедура получения контента элементарная, достаточно просто скачать торрент файл и добавить его в загрузку в вашем торрент клиенте. Если у вас нет специального торрент клиента, вы можете его скачать у нас.