Девушка моих кошмаров / The Heartbreak Kid (Бобби Фаррелли / Bobby Farrelly; Питер Фаррелли / Peter Farrelly) [2007, США, мелодрама, комедия, SATRip] [Open Matte] DUB 

Цитировать
Девушка моих кошмаров : The Heartbreak Kid Страна: США
Жанр: мелодрама, комедия
Продолжительность: 01:41:03
Год выпуска: 2007
Перевод:
- Профессиональный (дублированный) - Пифагор
Субтитры: отсутствуют-Режиссёры: Бобби Фаррелли : Bobby Farrelly, Питер Фаррелли : Peter Farrelly
В ролях: Бен Стиллер, Мишель Монахэн, Джерри Стиллер, Малин Акерман, Карлос Менсиа, Стефани Кортни, Али Хиллис, Николь Паон, Джоэль Брайант, Э.Э. Белл, Лоурен Боулз, Натали Картер, Лесли Истербрук, Дэвид Ходжес, Рой Дженкинс, Kayla Kleevage, Майкл Кромка, Николас Кромка, Миранда Мэй.-Описание: История о парне, терпевшем неудачу за неудачей на любовном фронте и в результате женившемся на идеальной, вроде бы, девушке, которая только во время медового месяца открыла свое истинное лицо — психопатки, экстремалки и капризной стервы. Он в шоке, но тут на горизонте появляется настоящая Девушка Его Мечты — умница-красавица, веселушка и вообще — само совершенство.-
Семпл: http://sendfile.su/1359578-Доп. информация: Фильм записан с казахстанского телеканала НТК.
-Качество: SATRip
Формат: AVI
Видео: XviD 67, 720x400 (16:9), 25 fps, ~1880 kbps, 0.261 bit/pixel
Аудио: [RUS] 48 kHz, AC3 Dolby Digital, 1 ch, 192 kbps

Mediainfo

Общее
Полное имя : F:\The.Heartbreak.Kid.2007.SATRip.avi
Формат : AVI
Формат/Информация : Audio Video Interleave
Размер файла : 1,47 Гбайт
Продолжительность : 1 ч. 41 м.
Общий поток : 2082 Кбит/сек
Программа кодирования : VirtualDubMod 1.5.10.2 (build 2540/release)
Библиотека кодирования : VirtualDubMod build 2540/release
Видео
Идентификатор : 0
Формат : MPEG-4 Visual
Профиль формата : Advanced Simple@L5
Параметр BVOP формата : 2
Параметр QPel формата : Нет
Параметр GMC формата : Без точки перехода
Параметр матрицы формата : Default (H.263)
Идентификатор кодека : XVID
Идентификатор кодека/Подсказка : XviD
Продолжительность : 1 ч. 41 м.
Битрейт : 1880 Кбит/сек
Ширина : 720 пикселей
Высота : 400 пикселей
Соотношение сторон : 16:9
Частота кадров : 25,000 кадров/сек
Цветовое пространство : YUV
Субдискретизация насыщенности : 4:2:0
Битовая глубина : 8 бит
Тип развёртки : Прогрессивная
Метод сжатия : С потерями
Бит/(Пиксели*Кадры) : 0.261
Размер потока : 1,33 Гбайт (90%)
Библиотека кодирования : XviD 67
Аудио
Идентификатор : 1
Формат : AC-3
Формат/Информация : Audio Coding 3
Параметр Endianness формата : Big
Идентификатор кодека : 2000
Продолжительность : 1 ч. 41 м.
Вид битрейта : Постоянный
Битрейт : 192 Кбит/сек
Каналы : 1 канал
Расположение каналов : Front: C
Частота : 48,0 КГц
Частота кадров : 31,250 кадров/сек (1536 spf)
Битовая глубина : 16 бит
Метод сжатия : С потерями
Размер потока : 139 Мбайт (9%)
Выравнивание : Разделение по промежуткам
Продолжительность промежутка : 40 мс. (1,00 видеокадр)
Время предзагрузки промежутка : 500 мс.
ServiceKind/String : Complete Main

SATRip vs. BDRip

SATRip------vs.------BDRip

Скриншот с названием фильма

Скриншоты

Вы не можете начинать темы
Вы не можете отвечать на сообщения
Вы не можете редактировать свои сообщения
Вы не можете удалять свои сообщения
Вы не можете голосовать в опросах
Вы не можете прикреплять файлы к сообщениям
Вы можете скачивать файлы
!ВНИМАНИЕ!

Сайт не предоставляет электронные версии произведений, а занимается лишь коллекционированием и каталогизацией ссылок, присылаемых и публикуемых на форуме нашими читателями. Если вы являетесь правообладателем какого-либо представленного материала и не желаете, чтобы ссылка на него находилась в нашем каталоге, свяжитесь с нами, и мы незамедлительно удалим ее. Файлы для обмена на трекере предоставлены пользователями сайта, и администрация не несет ответственности за их содержание. Просьба не заливать файлы, защищенные авторскими правами, а также файлы нелегального содержания!

Искали программы, игры, дополнения, музыка mp3, аниме, аудио книги, журналы? Добро пожаловать на свободный торрент трекер Torrents, у нас можно скачать бесплатно, без смс и регистрации и прочих ограничений лучшие, отборные сборки программ, игр. Скачать торрентом не составит труда даже не опытному пользователю. Раздачи ежедневно обновляются, только лучшие и качественные раздачи, подробные описания и скриншоты. Огромная коллекция программ для работы со звуком, графикой, дизайном, а так же множество плагинов и инструментов к ним с подробной инструкцией и рекомендациями. Прошивки для навигаторов, карты. Разнообразные игры, для Windows, Linux. В коллекцие есть и старые игры любых жанров, Rpg, Action, Shooter, strategy Множество дополнений, модификаций, сценариев для популярных игр в жанре экш, рпг, гонки, стратегии, логические игры. Множество аддонов и сценариев для Microsoft Flight Simulator Большая коллекция книг, учебников. Если нет возможности купить печатное издание - смело скачивайте цифровую версию книги или, быть может, журнала. Не любите читать - можно загрузить бесплатно аудикнигу. Для веб дизайнеров и программистов так же найдется множество специализированного софта, таких как: редакторы с подсветкой, среды программирования, компоненты, системы управления базами данных, разнообразные скрипты и шаблоны. Не так давно у нас появился материал для автолюбителей и владельцев мото - оригинальные и неоригинальные каталоги запчастей, книги и журналы по ремонту и обслуживанию, видеоуроки, статьи по чип тюнингу, прошивкам. Процедура получения контента элементарная, достаточно просто скачать торрент файл и добавить его в загрузку в вашем торрент клиенте. Если у вас нет специального торрент клиента, вы можете его скачать у нас.