Девичьи обещанья / Девичьи обеты / Sluby panienskie (Филип Байон / Filip Bajon) [2010, Польша, мелодрама, комедия, DVDRip] VO (acolith) 

Цитировать
Девичьи обещанья / Девичьи обеты / Sluby panienskie- Страна: Польша
Жанр: мелодрама, комедия
Год выпуска: 2010
Продолжительность: 01:36:10
Перевод: Одноголосый закадровый acolith
Субтитры: нет
Оригинальная аудиодорожка: польский-Режиссер: Филип Байон / Filip Bajon-В ролях:
Анна Цесляк, Мацей Штур, Марта Жмуда Тшебятовска, Борис Шыц, Робэрт Вецкевич, Эдита Ольшувка, Анджей Грабовски, Виктор Зборовский, Ежи Рогальский, Михал Пеля и другие.-Описание:
Альбин и Густав – друзья и разгульные парни, которые пытаются любой ценой соблазнить девушек Анелю и Клару, решительно настроенных против всех, по их мнению, всегда неискренних и коварных мужчин. Однако на этот раз поиски слабых точек женщин, чтобы обрести желаемое – встречают жёсткий отпор и терпят неудачи. Но зато девушки делают все возможное, чтобы как можно дольше водить за нос и с наслаждением мучить незадачливых мужчин. Начинается большая война мужчин-женщин, разыгрывается полный интриг и разбитых сердец сюжет, где допускаются разнообразные хитрые и коварные комбинации.-Дополнительная информация: стихотворный перевод
Видеоряд отсюда: http://rutracker.org/forum/viewtopic.php?t=3578663-Сэмпл: http://sendfile.su/1359519-Качество видео: DVDRip
Формат видео: AVI
Видео: XviD, 720x384 (1.85:1), 25fps, ~2395kb/s (0.346 bit/pixel)
Аудио 1: 48 kHz, AC3 Dolby Digital 3/2 (L,C,R,l,r) + LFE ch, ~448 kbps русский одноголосый
Аудио 2: 48 kHz, AC3 Dolby Digital 3/2 (L,C,R,l,r) + LFE ch, ~448 kbps польский

MediaInfo

General
Complete name
Format : AVI
Format/Info : Audio Video Interleave
Format profile : OpenDML
File size : 2.22 GiB
Duration : 1 h 36 min
Overall bit rate : 3 309 kb/s
Writing application : VirtualDubMod 1.5.10.2 (build 2540/release)
Writing library : VirtualDubMod build 2540/release
Video
ID : 0
Format : MPEG-4 Visual
Format profile : Advanced Simple@L5
Format settings, BVOP : 1
Format settings, QPel : No
Format settings, GMC : No warppoints
Format settings, Matrix : Custom
Codec ID : XVID
Codec ID/Hint : XviD
Duration : 1 h 36 min
Bit rate : 2 395 kb/s
Width : 720 pixels
Height : 384 pixels
Display aspect ratio : 1.85:1
Frame rate : 25.000 FPS
Color space : YUV
Chroma subsampling : 4:2:0
Bit depth : 8 bits
Scan type : Progressive
Compression mode : Lossy
Bits/(Pixel*Frame) : 0.346
Stream size : 1.61 GiB (72%)
Writing library : XviD 1.2.1 (UTC 2008-12-04)
Audio #1
ID : 1
Format : AC-3
Format/Info : Audio Coding 3
Format settings, Endianness : Big
Codec ID : 2000
Duration : 1 h 36 min
Bit rate mode : Constant
Bit rate : 448 kb/s
Channel(s) : 6 channels
Channel positions : Front: L C R, Side: L R, LFE
Sampling rate : 48.0 kHz
Frame rate : 31.250 FPS (1536 SPF)
Bit depth : 16 bits
Compression mode : Lossy
Stream size : 308 MiB (14%)
Alignment : Split accross interleaves
Interleave, duration : 40 ms (1.00 video frame)
Interleave, preload duration : 500 ms
Service kind : Complete Main
Audio #2
ID : 2
Format : AC-3
Format/Info : Audio Coding 3
Format settings, Endianness : Big
Codec ID : 2000
Duration : 1 h 36 min
Bit rate mode : Constant
Bit rate : 448 kb/s
Channel(s) : 6 channels
Channel positions : Front: L C R, Side: L R, LFE
Sampling rate : 48.0 kHz
Frame rate : 31.250 FPS (1536 SPF)
Bit depth : 16 bits
Compression mode : Lossy
Stream size : 308 MiB (14%)
Alignment : Split accross interleaves
Interleave, duration : 40 ms (1.00 video frame)
Interleave, preload duration : 500 ms
Service kind : Complete Main

Скриншот c названием фильма

Скриншоты


Вы не можете начинать темы
Вы не можете отвечать на сообщения
Вы не можете редактировать свои сообщения
Вы не можете удалять свои сообщения
Вы не можете голосовать в опросах
Вы не можете прикреплять файлы к сообщениям
Вы можете скачивать файлы
!ВНИМАНИЕ!

Сайт не предоставляет электронные версии произведений, а занимается лишь коллекционированием и каталогизацией ссылок, присылаемых и публикуемых на форуме нашими читателями. Если вы являетесь правообладателем какого-либо представленного материала и не желаете, чтобы ссылка на него находилась в нашем каталоге, свяжитесь с нами, и мы незамедлительно удалим ее. Файлы для обмена на трекере предоставлены пользователями сайта, и администрация не несет ответственности за их содержание. Просьба не заливать файлы, защищенные авторскими правами, а также файлы нелегального содержания!

Искали программы, игры, дополнения, музыка mp3, аниме, аудио книги, журналы? Добро пожаловать на свободный торрент трекер Torrents, у нас можно скачать бесплатно, без смс и регистрации и прочих ограничений лучшие, отборные сборки программ, игр. Скачать торрентом не составит труда даже не опытному пользователю. Раздачи ежедневно обновляются, только лучшие и качественные раздачи, подробные описания и скриншоты. Огромная коллекция программ для работы со звуком, графикой, дизайном, а так же множество плагинов и инструментов к ним с подробной инструкцией и рекомендациями. Прошивки для навигаторов, карты. Разнообразные игры, для Windows, Linux. В коллекцие есть и старые игры любых жанров, Rpg, Action, Shooter, strategy Множество дополнений, модификаций, сценариев для популярных игр в жанре экш, рпг, гонки, стратегии, логические игры. Множество аддонов и сценариев для Microsoft Flight Simulator Большая коллекция книг, учебников. Если нет возможности купить печатное издание - смело скачивайте цифровую версию книги или, быть может, журнала. Не любите читать - можно загрузить бесплатно аудикнигу. Для веб дизайнеров и программистов так же найдется множество специализированного софта, таких как: редакторы с подсветкой, среды программирования, компоненты, системы управления базами данных, разнообразные скрипты и шаблоны. Не так давно у нас появился материал для автолюбителей и владельцев мото - оригинальные и неоригинальные каталоги запчастей, книги и журналы по ремонту и обслуживанию, видеоуроки, статьи по чип тюнингу, прошивкам. Процедура получения контента элементарная, достаточно просто скачать торрент файл и добавить его в загрузку в вашем торрент клиенте. Если у вас нет специального торрент клиента, вы можете его скачать у нас.