Нелюбимая / The Unloved (Саманта Мортон / Samantha Morton) [2009, Великобритания, драма, DVDRip] VO (С. Покровский) + Sub Rus + Original Eng 

Цитировать
Нелюбимая / The Unloved
Страна: Великобритания
Жанр: драма
Год выпуска: 2009
Продолжительность: 01:48:04
Перевод: Одноголосый закадровый [С. Покровский]
Перевод 2: Субтитры
Субтитры: русские
Оригинальная аудиодорожка: английский
Режиссер: Саманта Мортон / Samantha Morton
В ролях: Молли Уиндсор, Роберт Карлайл, Лорен Соча, Сьюзэн Линч, Крэйг Паркинсон, Андреа Лоу, Карл Коллинз, Йохан Майерс, Майкл Соча, Даррен О. Кэмпбелл, Керри Стэйси
Описание: "Нелюбимая" - режиссёрский дебют для известной английской киноактрисы Саманты Мортон. Можно сказать, что работу над картиной она начала ещё в далёком 1989 году в 16-летнем возрасте, занимаясь в студии актёрского мастерства The Television Workshop, где ребятами была поставлена пьеса, в основу которой легли её собственные опыт и переживания, ведь как и главная героиня Люси, Саманта большую часть детства провела в приютах и приёмных семьях родного Ноттингема. В этом полуавтобиографическом фильме зрителю представляется система социальной опеки Великобритании глазами 11-летней девочки Люси. Её родители давно разведены. Больше всего она хотела бы жить с матерью, но та не готова нести бремя родительства. После пребывания в приёмной семье Люси живёт с отцом, но он жесток и совсем не заботится о дочери. Его любимое времяпрепровождение - посещение бара. После очередного проявления жестокости со стороны отца Люси набирается смелости и обращается в социальную службу. На время, пока ей не подыщут приёмную семью, её определяют в детский дом, где она сталкивается со всеми неприглядными сторонами жизни в подобных заведениях, и, несмотря на сложившуюся дружбу со своей соседкой по комнате, более старшей девочкой Лорен, Люси по-прежнему ощущает собственную ненужность и одиночество.
Перевод содержит грубые слова и выражения. 12+
Благодарность за рип оригинального DVD - dmitry2264

Сэмпл: http://multi-up.com/1166561
Качество видео: DVDRip
Формат видео: AVI
Видео: 720x384 (1.88:1), 23.976 fps, XviD build 73 ~2406 kbps avg, 0.36 bit/pixel
Аудио 1: 48 kHz, AC3 Dolby Digital, 2/0 (L,R) ch, ~192.00 kbps avg - русский
Аудио 2: 48 kHz, AC3 Dolby Digital, 2/0 (L,R) ch, ~192.00 kbps avg - английский
Формат субтитров: softsub (SRT)

MediaInfo

General
Complete name :The.Unloved.2009.avi
Format : AVI
Format/Info : Audio Video Interleave
Format profile : OpenDML
File size : 2.11 GiB
Duration : 1 h 48 min
Overall bit rate : 2 797 kb/s
Writing application : VirtualDubMod 1.5.10.2 (build 2540/release)
Writing library : VirtualDubMod build 2540/release
Video
ID : 0
Format : MPEG-4 Visual
Format profile : Advanced Simple@L5
Format settings, BVOP : 1
Format settings, QPel : No
Format settings, GMC : No warppoints
Format settings, Matrix : Custom
Codec ID : XVID
Codec ID/Hint : XviD
Duration : 1 h 48 min
Bit rate : 2 395 kb/s
Width : 720 pixels
Height : 384 pixels
Display aspect ratio : 1.85:1
Frame rate : 23.976 (24000/1001) FPS
Color space : YUV
Chroma subsampling : 4:2:0
Bit depth : 8 bits
Scan type : Progressive
Compression mode : Lossy
Bits/(Pixel*Frame) : 0.361
Stream size : 1.81 GiB (86%)
Writing library : XviD 73
Audio #1
ID : 1
Format : AC-3
Format/Info : Audio Coding 3
Format settings, Endianness : Big
Codec ID : 2000
Duration : 1 h 48 min
Bit rate mode : Constant
Bit rate : 192 kb/s
Channel(s) : 2 channels
Channel positions : Front: L R
Sampling rate : 48.0 kHz
Frame rate : 31.250 FPS (1536 spf)
Bit depth : 16 bits
Compression mode : Lossy
Stream size : 148 MiB (7%)
Alignment : Split accross interleaves
Interleave, duration : 42 ms (1.00 video frame)
Interleave, preload duratio : 500 ms
Title : Russian
Service kind : Complete Main
Audio #2
ID : 2
Format : AC-3
Format/Info : Audio Coding 3
Format settings, Endianness : Big
Codec ID : 2000
Duration : 1 h 48 min
Bit rate mode : Constant
Bit rate : 192 kb/s
Channel(s) : 2 channels
Channel positions : Front: L R
Sampling rate : 48.0 kHz
Frame rate : 31.250 FPS (1536 spf)
Bit depth : 16 bits
Compression mode : Lossy
Stream size : 148 MiB (7%)
Alignment : Split accross interleaves
Interleave, duration : 42 ms (1.00 video frame)
Interleave, preload duratio : 500 ms
Title : English
Service kind : Complete Main

Скриншот c названием фильма

Вы не можете начинать темы
Вы не можете отвечать на сообщения
Вы не можете редактировать свои сообщения
Вы не можете удалять свои сообщения
Вы не можете голосовать в опросах
Вы не можете прикреплять файлы к сообщениям
Вы можете скачивать файлы
!ВНИМАНИЕ!

Сайт не предоставляет электронные версии произведений, а занимается лишь коллекционированием и каталогизацией ссылок, присылаемых и публикуемых на форуме нашими читателями. Если вы являетесь правообладателем какого-либо представленного материала и не желаете, чтобы ссылка на него находилась в нашем каталоге, свяжитесь с нами, и мы незамедлительно удалим ее. Файлы для обмена на трекере предоставлены пользователями сайта, и администрация не несет ответственности за их содержание. Просьба не заливать файлы, защищенные авторскими правами, а также файлы нелегального содержания!

Искали программы, игры, дополнения, музыка mp3, аниме, аудио книги, журналы? Добро пожаловать на свободный торрент трекер Torrents, у нас можно скачать бесплатно, без смс и регистрации и прочих ограничений лучшие, отборные сборки программ, игр. Скачать торрентом не составит труда даже не опытному пользователю. Раздачи ежедневно обновляются, только лучшие и качественные раздачи, подробные описания и скриншоты. Огромная коллекция программ для работы со звуком, графикой, дизайном, а так же множество плагинов и инструментов к ним с подробной инструкцией и рекомендациями. Прошивки для навигаторов, карты. Разнообразные игры, для Windows, Linux. В коллекцие есть и старые игры любых жанров, Rpg, Action, Shooter, strategy Множество дополнений, модификаций, сценариев для популярных игр в жанре экш, рпг, гонки, стратегии, логические игры. Множество аддонов и сценариев для Microsoft Flight Simulator Большая коллекция книг, учебников. Если нет возможности купить печатное издание - смело скачивайте цифровую версию книги или, быть может, журнала. Не любите читать - можно загрузить бесплатно аудикнигу. Для веб дизайнеров и программистов так же найдется множество специализированного софта, таких как: редакторы с подсветкой, среды программирования, компоненты, системы управления базами данных, разнообразные скрипты и шаблоны. Не так давно у нас появился материал для автолюбителей и владельцев мото - оригинальные и неоригинальные каталоги запчастей, книги и журналы по ремонту и обслуживанию, видеоуроки, статьи по чип тюнингу, прошивкам. Процедура получения контента элементарная, достаточно просто скачать торрент файл и добавить его в загрузку в вашем торрент клиенте. Если у вас нет специального торрент клиента, вы можете его скачать у нас.