Опасные танцы / Dangerous Dance / Rikud Mesukan (Менахем Голан / Menahem Golan) [2007, Израиль, мюзикл, TVRip] + Sub Rus + Original Heb 

Цитировать
Опасные танцы / Dangerous Dance / Rikud Mesukan
Страна: Израиль
Жанр: мюзикл
Год выпуска: 2007
Продолжительность: 01:20:28
Перевод: Субтитры (Транс Тайтлс ЛТД)
Субтитры: русские
Оригинальная аудиодорожка: иврит
Режиссер: Менахем Голан / Menahem Golan
В ролях: Зоар Либа, Елиана Бакаер, Хилик Коэн, Омер Барнеа, Михал Амдурски, Раффи Тавор, Галья Альбен, Илана Эвиталь, Жил Бен Дэвид, Авив Бен-Ишай
Описание: Йосси, молодой безработный парень из Сдерота, проводит ночи в местном танцевальном баре. Он лучше всех в городе танцует латину, девушки без ума от молодого красавца и первоклассного танцора. Аннабель, дочь миллионера, - также превосходная танцовщица. Она живет и дышит только танцами, хотя ее отец против такого вольного увлечения дочери. Приближается крупный национальный танцевальный конкурс, и Йосси становится партнером Аннабель. Правда, против этого дуэта — еще двое: танцовщица, влюбленная в Йосси, и бывший партнер Аннабель. Из зависти и ревности он натравливает на Йосси бандитов...
Доп. информация: КиноПоиск, IMDb
Сэмпл: http://www.mediafire.com/file/j19ps9dolo9dkz4/Sample_A_Dangerous_Dance.mp4
Качество видео: TVRip
Формат видео: MP4
Видео: AVC 640х480 4:3 25 кадров/сек 660 Кбит/сек
Аудио: Аудио: AAC 44.1 КГц 2 канала 160 Кбит/сек
Формат субтитров: hardsub (неотключаемые)

MediaInfo

Общее
Полное имя : Dangerous Dance.mp4
Формат : MPEG-4
Профиль формата : Base Media
Идентификатор кодека : isom
Размер файла : 470 Мбайт
Продолжительность : 1 ч. 20 м.
Режим общего битрейта : Переменный
Общий поток : 817 Кбит/сек
Программа кодирования : Lavf55.48.100
Видео
Идентификатор : 1
Формат : AVC
Формат/Информация : Advanced Video Codec
Профиль формата : Baseline@L3
Параметр CABAC формата : Нет
Параметр ReFrames формата : 3 кадра
Идентификатор кодека : avc1
Идентификатор кодека/Информация : Advanced Video Coding
Продолжительность : 1 ч. 20 м.
Битрейт : 660 Кбит/сек
Ширина : 640 пикселей
Высота : 480 пикселей
Соотношение сторон : 4:3
Режим частоты кадров : Постоянный
Частота кадров : 25,000 кадров/сек
Цветовое пространство : YUV
Субдискретизация насыщенности : 4:2:0
Битовая глубина : 8 бит
Тип развёртки : Прогрессивная
Бит/(Пиксели*Кадры) : 0.086
Размер потока : 380 Мбайт (81%)
Библиотека кодирования : x264 core 142
Настройки программы : cabac=0 / ref=3 / deblock=1:0:0 / analyse=0x1:0x111 / me=hex / subme=7 / psy=1 / psy_rd=1.00:0.00 / mixed_ref=1 / me_range=16 / chroma_me=1 / trellis=1 / 8x8dct=0 / cqm=0 / deadzone=21,11 / fast_pskip=1 / chroma_qp_offset=-2 / threads=6 / lookahead_threads=1 / sliced_threads=0 / nr=0 / decimate=1 / interlaced=0 / bluray_compat=0 / constrained_intra=0 / bframes=0 / weightp=0 / keyint=25 / keyint_min=2 / scenecut=40 / intra_refresh=0 / rc_lookahead=25 / rc=2pass / mbtree=1 / bitrate=660 / ratetol=1.0 / qcomp=0.60 / qpmin=0 / qpmax=69 / qpstep=4 / cplxblur=20.0 / qblur=0.5 / ip_ratio=1.40 / aq=1:1.00
Аудио
Идентификатор : 2
Формат : AAC
Формат/Информация : Advanced Audio Codec
Профиль формата : LC
Идентификатор кодека : 40
Продолжительность : 1 ч. 20 м.
Вид битрейта : Переменный
Битрейт : 152 Кбит/сек
Максимальный битрейт : 160 Кбит/сек
Каналы : 2 канала
Расположение каналов : Front: L R
Частота : 44,1 КГц
Метод сжатия : С потерями
Размер потока : 87,5 Мбайт (19%)

Скриншот c названием фильма

Скриншоты



Вы не можете начинать темы
Вы не можете отвечать на сообщения
Вы не можете редактировать свои сообщения
Вы не можете удалять свои сообщения
Вы не можете голосовать в опросах
Вы не можете прикреплять файлы к сообщениям
Вы можете скачивать файлы
!ВНИМАНИЕ!

Сайт не предоставляет электронные версии произведений, а занимается лишь коллекционированием и каталогизацией ссылок, присылаемых и публикуемых на форуме нашими читателями. Если вы являетесь правообладателем какого-либо представленного материала и не желаете, чтобы ссылка на него находилась в нашем каталоге, свяжитесь с нами, и мы незамедлительно удалим ее. Файлы для обмена на трекере предоставлены пользователями сайта, и администрация не несет ответственности за их содержание. Просьба не заливать файлы, защищенные авторскими правами, а также файлы нелегального содержания!

Искали программы, игры, дополнения, музыка mp3, аниме, аудио книги, журналы? Добро пожаловать на свободный торрент трекер Torrents, у нас можно скачать бесплатно, без смс и регистрации и прочих ограничений лучшие, отборные сборки программ, игр. Скачать торрентом не составит труда даже не опытному пользователю. Раздачи ежедневно обновляются, только лучшие и качественные раздачи, подробные описания и скриншоты. Огромная коллекция программ для работы со звуком, графикой, дизайном, а так же множество плагинов и инструментов к ним с подробной инструкцией и рекомендациями. Прошивки для навигаторов, карты. Разнообразные игры, для Windows, Linux. В коллекцие есть и старые игры любых жанров, Rpg, Action, Shooter, strategy Множество дополнений, модификаций, сценариев для популярных игр в жанре экш, рпг, гонки, стратегии, логические игры. Множество аддонов и сценариев для Microsoft Flight Simulator Большая коллекция книг, учебников. Если нет возможности купить печатное издание - смело скачивайте цифровую версию книги или, быть может, журнала. Не любите читать - можно загрузить бесплатно аудикнигу. Для веб дизайнеров и программистов так же найдется множество специализированного софта, таких как: редакторы с подсветкой, среды программирования, компоненты, системы управления базами данных, разнообразные скрипты и шаблоны. Не так давно у нас появился материал для автолюбителей и владельцев мото - оригинальные и неоригинальные каталоги запчастей, книги и журналы по ремонту и обслуживанию, видеоуроки, статьи по чип тюнингу, прошивкам. Процедура получения контента элементарная, достаточно просто скачать торрент файл и добавить его в загрузку в вашем торрент клиенте. Если у вас нет специального торрент клиента, вы можете его скачать у нас.