Рыжая Зора / Die rote Zora (Питер Кахейн / Peter Kahane) [2008, Германия, Швеция, драма, приключения, семейный, HDRip-AVC] VO + Sub Rus + Original Ger 

Цитировать
Рыжая Зора / Die rote Zora
Страна: Германия, Швеция
Жанр: драма, приключения, семейный
Год выпуска: 2008
Продолжительность: 01:39:02
Перевод: Одноголосый закадровый
Субтитры: русские
Оригинальная аудиодорожка: немецкий
Режиссер: Питер Кахейн / Peter Kahane
В ролях: Якоб Кноблаух / Jakob Knoblauch, Нора Квест / Nora Quest, Дэвид Бертон / David Berton, Паскаль Андрес / Pascal Andres, Вуди Муес / Woody Mues, Линн Ройссе / Linn Reusse, Марио Адорф / Mario Adorf, Доминик Хорвиц / Dominique Horwitz, Бен Беккер / Ben Becker
Описание: В 30-е годы двадцатого века на побережье Хорватии мать 12-летнего Бранко умирает, и мальчик вынужден отправиться на поиски своего отца. По пути Бранко попадает в небольшой городок, где таинственная рыжеволосая девочка Рыжая Зора, которая стоит во главе банды подростков, постоянно обводит местные власти вокруг пальца. Её ловкость и находчивость становятся настоящей занозой для местного мэра и богатого торговца рыбой Карамана, которые стремятся контролировать весь город.
После того как Бранко случайно узнаёт об их планах полностью монополизировать торговлю рыбой и вытеснить остальных рыбаков, его арестовывают по обвинению Карамана в воровстве. Рыжая Зора освобождает Бранко, который присоединяется к её банде, и вместе они готовы противостоять махинациям Карамана и произволу мэра.
Сэмпл: http://multi-up.com/1165188
Качество видео: HDRip-AVC
Формат видео: MKV
Видео: AVC at 1750 Кбит/сек : 800 x 448 (1.786) at 24.000 fps
Аудио 1: AC-3 at 224 Кбит/сек : 2 канала, 48,0 КГц Language : ru
Аудио 2: AC-3 at 448 Кбит/сек : 6 каналов, 48,0 КГц Language : de
Формат субтитров: prerendered (IDX+SUB)
Доп. информация о субтитрах: Отключаемые (Juris)

MediaInfo

Общее
Уникальный идентификатор : 239328665229674401590702325279396099989 (0xB40D0637F984913C939BD87A06467795)
Полное имя : F:\С моей озвучкой\Рыжая Зора.mkv
Формат : Matroska
Версия формата : Version 4 / Version 2
Размер файла : 1,68 Гбайт
Продолжительность : 1 ч. 39 м.
Общий поток : 2424 Кбит/сек
Дата кодирования : UTC 2017-08-17 19:41:48
Программа кодирования : mkvmerge v7.9.0 ('Birds') 64bit
Библиотека кодирования : libebml v1.3.1 + libmatroska v1.4.2
Видео
Идентификатор : 1
Формат : AVC
Формат/Информация : Advanced Video Codec
Профиль формата : High@L3
Параметр CABAC формата : Да
Параметр ReFrames формата : 4 кадра
Идентификатор кодека : V_MPEG4/ISO/AVC
Продолжительность : 1 ч. 39 м.
Битрейт : 1750 Кбит/сек
Ширина : 800 пикселей
Высота : 448 пикселей
Соотношение сторон : 16:9
Режим частоты кадров : Постоянный
Частота кадров : 24,000 кадра/сек
Цветовое пространство : YUV
Субдискретизация насыщенности : 4:2:0
Битовая глубина : 8 бит
Тип развёртки : Прогрессивная
Бит/(Пиксели*Кадры) : 0.203
Размер потока : 1,21 Гбайт (72%)
Библиотека кодирования : x264 core 129 r2230 1cffe9f
Настройки программы : cabac=1 / ref=3 / deblock=1:0:0 / analyse=0x3:0x113 / me=hex / subme=7 / psy=1 / psy_rd=1.00:0.00 / mixed_ref=1 / me_range=16 / chroma_me=1 / trellis=1 / 8x8dct=1 / cqm=0 / deadzone=21,11 / fast_pskip=1 / chroma_qp_offset=-2 / threads=12 / lookahead_threads=2 / sliced_threads=0 / nr=1 / decimate=1 / interlaced=0 / bluray_compat=0 / constrained_intra=0 / bframes=3 / b_pyramid=2 / b_adapt=1 / b_bias=0 / direct=1 / weightb=1 / open_gop=0 / weightp=2 / keyint=240 / keyint_min=24 / scenecut=40 / intra_refresh=0 / rc_lookahead=40 / rc=crf / mbtree=1 / crf=20.0 / qcomp=0.60 / qpmin=0 / qpmax=69 / qpstep=4 / ip_ratio=1.40 / aq=1:1.00
Default : Да
Forced : Нет
Аудио #1
Идентификатор : 2
Формат : AC-3
Формат/Информация : Audio Coding 3
Параметр Endianness формата : Big
Идентификатор кодека : A_AC3
Продолжительность : 1 ч. 39 м.
Вид битрейта : Постоянный
Битрейт : 224 Кбит/сек
Каналы : 2 канала
Расположение каналов : Front: L R
Частота : 48,0 КГц
Частота кадров : 31,250 кадров/сек (1536 spf)
Битовая глубина : 16 бит
Метод сжатия : С потерями
Размер потока : 159 Мбайт (9%)
Язык : Russian
ServiceKind/String : Complete Main
Default : Да
Forced : Нет
Аудио #2
Идентификатор : 3
Формат : AC-3
Формат/Информация : Audio Coding 3
Параметр Endianness формата : Big
Идентификатор кодека : A_AC3
Продолжительность : 1 ч. 39 м.
Вид битрейта : Постоянный
Битрейт : 448 Кбит/сек
Каналы : 6 каналов
Расположение каналов : Front: L C R, Side: L R, LFE
Частота : 48,0 КГц
Частота кадров : 31,250 кадров/сек (1536 spf)
Битовая глубина : 16 бит
Метод сжатия : С потерями
Размер потока : 317 Мбайт (18%)
Язык : German
ServiceKind/String : Complete Main
Default : Нет
Forced : Нет
Текст
Идентификатор : 4
Формат : UTF-8
Идентификатор кодека : S_TEXT/UTF8
Идентификатор кодека/Информация : UTF-8 Plain Text
Продолжительность : 1 ч. 31 м.
Битрейт : 66 бит/сек
ElementCount : 813
Размер потока : 44,9 Кбайт (0%)
Язык : Russian
Default : Да
Forced : Нет

Скриншоты

Вы не можете начинать темы
Вы не можете отвечать на сообщения
Вы не можете редактировать свои сообщения
Вы не можете удалять свои сообщения
Вы не можете голосовать в опросах
Вы не можете прикреплять файлы к сообщениям
Вы можете скачивать файлы
!ВНИМАНИЕ!

Сайт не предоставляет электронные версии произведений, а занимается лишь коллекционированием и каталогизацией ссылок, присылаемых и публикуемых на форуме нашими читателями. Если вы являетесь правообладателем какого-либо представленного материала и не желаете, чтобы ссылка на него находилась в нашем каталоге, свяжитесь с нами, и мы незамедлительно удалим ее. Файлы для обмена на трекере предоставлены пользователями сайта, и администрация не несет ответственности за их содержание. Просьба не заливать файлы, защищенные авторскими правами, а также файлы нелегального содержания!

Искали программы, игры, дополнения, музыка mp3, аниме, аудио книги, журналы? Добро пожаловать на свободный торрент трекер Torrents, у нас можно скачать бесплатно, без смс и регистрации и прочих ограничений лучшие, отборные сборки программ, игр. Скачать торрентом не составит труда даже не опытному пользователю. Раздачи ежедневно обновляются, только лучшие и качественные раздачи, подробные описания и скриншоты. Огромная коллекция программ для работы со звуком, графикой, дизайном, а так же множество плагинов и инструментов к ним с подробной инструкцией и рекомендациями. Прошивки для навигаторов, карты. Разнообразные игры, для Windows, Linux. В коллекцие есть и старые игры любых жанров, Rpg, Action, Shooter, strategy Множество дополнений, модификаций, сценариев для популярных игр в жанре экш, рпг, гонки, стратегии, логические игры. Множество аддонов и сценариев для Microsoft Flight Simulator Большая коллекция книг, учебников. Если нет возможности купить печатное издание - смело скачивайте цифровую версию книги или, быть может, журнала. Не любите читать - можно загрузить бесплатно аудикнигу. Для веб дизайнеров и программистов так же найдется множество специализированного софта, таких как: редакторы с подсветкой, среды программирования, компоненты, системы управления базами данных, разнообразные скрипты и шаблоны. Не так давно у нас появился материал для автолюбителей и владельцев мото - оригинальные и неоригинальные каталоги запчастей, книги и журналы по ремонту и обслуживанию, видеоуроки, статьи по чип тюнингу, прошивкам. Процедура получения контента элементарная, достаточно просто скачать торрент файл и добавить его в загрузку в вашем торрент клиенте. Если у вас нет специального торрент клиента, вы можете его скачать у нас.