Бэтмен и Харли Квинн / Batman and Harley Quinn (Сэм Лью) [2017, США, фантастика, фэнтези, боевик, комедия, приключения, WEB-DLRip] MVO 

Цитировать
Бэтмен и Харли Квинн / Batman and Harley Quinn
Страна: США
Жанр: фантастика, фэнтези, боевик, комедия, приключения
Продолжительность: 01:14:16
Год выпуска: 2017
Перевод: Любительский (многоголосый закадровый)
Русские субтитры: нет
Режиссёр: Сэм Лью
Роли озвучивали: Пэйджет Брюстер, Джон Димаджио, Кевин Конрой, Кевин Майкл Ричардсон, Минди Стерлинг
Описание: В фильме рассказывается история о странных взаимоотношениях между Бэтменом и бывшей подружкой Джокера Харли Квинна. Злодейка влюбляется в Бэтмена, но свою любовь девушка проявляет странным образом. В то время как супер-герой помогает людям, спасая их жизни, Харли всячески ему мешает, постоянно создавая трудности. Бэтмен постоянно злится и отвечает резкими нападками против злодейки, но ничего не может поделать. В конце концов, Харли удается схватить и отправить на лечение в психбольницу для особо тяжелых клиентов, заодно немного успокоится.
Вскоре Харли вырывается на свободу совсем иным человеком. Девушка становится на сторону добра и выявляет желание помогать Бэтмену, которому сейчас просто необходима помощь, так как предстоит остановить надвигающуюся катастрофу, которую создали Доктор Джейсон Вудроу и Ядовитый Плющ. Угроза состоит в превращении людей в растения. Этого нельзя допустить, поэтому герои сплотятся, и будут бороться против заклятых врагов, чтобы освободить человечество от смертельной опасности.
Доп. информация: Релиз от ZM-SHOW
Семпл: http://multi-up.com/1165400
Качество: WEB-DLRip
Формат: AVI
Видео: XviD, 720x400, 23,976 fps, 1899 kb/s
Аудио: Русский: AC-3, 48,0 KHz, 2 ch, 192 kbps
Аудио 2: English: AC-3, 48,0 Hz, 6 ch, 384 kbps
Субтитры: отсутствуют

Подробные технические данные

Общее
Полное имя : E:\Мультфильмы\Бэтмен и Харли Квинн.avi
Формат : AVI
Формат/Информация : Audio Video Interleave
Размер файла : 1,29 Гбайт
Продолжительность : 1 ч. 14 м.
Общий поток : 2489 Кбит/сек
Программа кодирования : VirtualDubMod 1.5.10.2 (build 2540/release)
Библиотека кодирования : VirtualDubMod build 2540/release
Видео
Идентификатор : 0
Формат : MPEG-4 Visual
Профиль формата : Advanced Simple@L5
Параметр BVOP формата : 2
Параметр QPel формата : Нет
Параметр GMC формата : Без точки перехода
Параметр матрицы формата : Default (H.263)
Режим смешивания : Сжатый битовый поток
Идентификатор кодека : XVID
Идентификатор кодека/Подсказка : XviD
Продолжительность : 1 ч. 14 м.
Битрейт : 1899 Кбит/сек
Ширина : 720 пикселей
Высота : 400 пикселей
Соотношение сторон : 16:9
Частота кадров : 23,976 (24000/1001) кадра/сек
Цветовое пространство : YUV
Субдискретизация насыщенности : 4:2:0
Битовая глубина : 8 бит
Тип развёртки : Прогрессивная
Метод сжатия : С потерями
Бит/(Пиксели*Кадры) : 0.275
Размер потока : 1009 Мбайт (76%)
Библиотека кодирования : XviD 66
Аудио #1
Идентификатор : 1
Формат : AC-3
Формат/Информация : Audio Coding 3
Параметр Endianness формата : Big
Идентификатор кодека : 2000
Продолжительность : 1 ч. 14 м.
Вид битрейта : Постоянный
Битрейт : 192 Кбит/сек
Каналы : 2 канала
Расположение каналов : Front: L R
Частота : 48,0 КГц
Частота кадров : 31,250 кадров/сек (1536 SPF)
Битовая глубина : 16 бит
Метод сжатия : С потерями
Размер потока : 102 Мбайт (8%)
Выравнивание : Разделение по промежуткам
Продолжительность промежутка : 42 мс. (1,00 видеокадр)
Время предзагрузки промежутка : 500 мс.
ServiceKind/String : Complete Main
Аудио #2
Идентификатор : 2
Формат : AC-3
Формат/Информация : Audio Coding 3
Параметр Endianness формата : Big
Идентификатор кодека : 2000
Продолжительность : 1 ч. 14 м.
Вид битрейта : Постоянный
Битрейт : 384 Кбит/сек
Каналы : 6 каналов
Расположение каналов : Front: L C R, Side: L R, LFE
Частота : 48,0 КГц
Частота кадров : 31,250 кадров/сек (1536 SPF)
Битовая глубина : 16 бит
Метод сжатия : С потерями
Размер потока : 204 Мбайт (15%)
Выравнивание : Соединение по промежуткам
Продолжительность промежутка : 42 мс. (1,00 видеокадр)
Время предзагрузки промежутка : 512 мс.

Скриншоты

Вы не можете начинать темы
Вы не можете отвечать на сообщения
Вы не можете редактировать свои сообщения
Вы не можете удалять свои сообщения
Вы не можете голосовать в опросах
Вы не можете прикреплять файлы к сообщениям
Вы можете скачивать файлы
!ВНИМАНИЕ!

Сайт не предоставляет электронные версии произведений, а занимается лишь коллекционированием и каталогизацией ссылок, присылаемых и публикуемых на форуме нашими читателями. Если вы являетесь правообладателем какого-либо представленного материала и не желаете, чтобы ссылка на него находилась в нашем каталоге, свяжитесь с нами, и мы незамедлительно удалим ее. Файлы для обмена на трекере предоставлены пользователями сайта, и администрация не несет ответственности за их содержание. Просьба не заливать файлы, защищенные авторскими правами, а также файлы нелегального содержания!

Искали программы, игры, дополнения, музыка mp3, аниме, аудио книги, журналы? Добро пожаловать на свободный торрент трекер Torrents, у нас можно скачать бесплатно, без смс и регистрации и прочих ограничений лучшие, отборные сборки программ, игр. Скачать торрентом не составит труда даже не опытному пользователю. Раздачи ежедневно обновляются, только лучшие и качественные раздачи, подробные описания и скриншоты. Огромная коллекция программ для работы со звуком, графикой, дизайном, а так же множество плагинов и инструментов к ним с подробной инструкцией и рекомендациями. Прошивки для навигаторов, карты. Разнообразные игры, для Windows, Linux. В коллекцие есть и старые игры любых жанров, Rpg, Action, Shooter, strategy Множество дополнений, модификаций, сценариев для популярных игр в жанре экш, рпг, гонки, стратегии, логические игры. Множество аддонов и сценариев для Microsoft Flight Simulator Большая коллекция книг, учебников. Если нет возможности купить печатное издание - смело скачивайте цифровую версию книги или, быть может, журнала. Не любите читать - можно загрузить бесплатно аудикнигу. Для веб дизайнеров и программистов так же найдется множество специализированного софта, таких как: редакторы с подсветкой, среды программирования, компоненты, системы управления базами данных, разнообразные скрипты и шаблоны. Не так давно у нас появился материал для автолюбителей и владельцев мото - оригинальные и неоригинальные каталоги запчастей, книги и журналы по ремонту и обслуживанию, видеоуроки, статьи по чип тюнингу, прошивкам. Процедура получения контента элементарная, достаточно просто скачать торрент файл и добавить его в загрузку в вашем торрент клиенте. Если у вас нет специального торрент клиента, вы можете его скачать у нас.