Эдуарт / Eduart (Ангелики Антониу / Angeliki Antoniou) [2006, Германия, Греция, Македония, драма, DVDRip] Original + sub 

Цитировать
Эдуарт / Eduart
Год выпуска: 2006
Страна: Германия, Греция, Македония, Албания
Жанр: драма
Продолжительность: 1:39:24
Перевод: Субтитры
Русские субтитры: есть
Перевод: Malky
Режиссер: Ангелики Антониу / Angeliki Antoniou
В ролях: Эшреф Дурмиши, Андре Хеннике, Ндриким Ксепа, Эмела Тели, Адриан Азири, Газменд Гьокай, Манос Вакусис, Эди Механа, Ekrem Ahmeti, Hristos Antoniou
Описание: Молодой албанский парень Эдуарт сбегает из дома от своего отца-тирана в Грецию, окрыленный мечтой стать рок-звездой. Но вместо того, чтобы взлететь на вершину, он падает на самое дно - становится вором и пытается торговать собой.
Однажды одного из его клиентов обнаруживают мертвым, но убил ли его Эдуард, для нас остается загадкой до самого финала. И все же герой фильма оказывается за решеткой, куда его сдает собственный отец. В тюрьме Эдуарт сближается с доктором, который помогает ему по-новому взглянуть на себя, свою жизнь и свои поступки.
Фильм основан на реальных событиях, которые происходят во время гражданской войны в Албании.
Доп. информация: 14 наград и 1 номинация

6.2/10
(203 votes)
-
Качество: DVDRip
Формат: AVI
Видео кодек: XviD
Аудио кодек: MP3
Видео: 592x320 25fps XviD 848Kbps
Аудио: MPEG Layer III 48KHz Stereo ~122 Kbps (оригинальный: албанский, немецкий, английский, греческий, французский)

mediainfo

malky@malky-desktop:~$ mediainfo /media/d/Downloads/Torrent/Eduart/Eduart.avi
General
Complete name : /media/d/Downloads/Torrent/Eduart/Eduart.avi
Format : AVI
Format/Info : Audio Video Interleave
File size : 699 MiB
Duration : 1h 39mn
Overall bit rate : 982 Kbps
Writing application : VirtualDubMod 1.5.10.2 (build 2540/release)
Writing library : VirtualDubMod build 2540/release
Video
ID : 0
Format : MPEG-4 Visual
Format profile : AdvancedSimple@L5
Format settings, BVOP : Yes
Format settings, QPel : No
Format settings, GMC : No warppoints
Format settings, Matrix : Default (H.263)
Codec ID : XVID
Codec ID/Hint : XviD
Duration : 1h 39mn
Bit rate : 848 Kbps
Width : 592 pixels
Height : 320 pixels
Display aspect ratio : 1.850
Frame rate : 25.000 fps
Resolution : 24 bits
Colorimetry : 4:2:0
Scan type : Progressive
Bits/(Pixel*Frame) : 0.179
Stream size : 603 MiB (86%)
Writing library : XviD 1.1.2 (UTC 2006-11-01)
Audio
ID : 1
Format : MPEG Audio
Format version : Version 1
Format profile : Layer 3
Format_Settings_Mode : Joint stereo
Codec ID : 55
Codec ID/Hint : MP3
Duration : 1h 39mn
Bit rate mode : Variable
Bit rate : 122 Kbps
Nominal bit rate : 128 Kbps
Channel(s) : 2 channels
Sampling rate : 48.0 KHz
Resolution : 16 bits
Stream size : 86.5 MiB (12%)
Alignment : Aligned on interleaves
Interleave, duration : 24 ms (0.60 video frame)
Interleave, preload duration : 507 ms
Writing library : LAME3.97
Encoding settings : -m j -V 4 -q 3 -lowpass 17 --abr 128

Скриншоты

Вы не можете начинать темы
Вы не можете отвечать на сообщения
Вы не можете редактировать свои сообщения
Вы не можете удалять свои сообщения
Вы не можете голосовать в опросах
Вы не можете прикреплять файлы к сообщениям
Вы можете скачивать файлы
!ВНИМАНИЕ!

Сайт не предоставляет электронные версии произведений, а занимается лишь коллекционированием и каталогизацией ссылок, присылаемых и публикуемых на форуме нашими читателями. Если вы являетесь правообладателем какого-либо представленного материала и не желаете, чтобы ссылка на него находилась в нашем каталоге, свяжитесь с нами, и мы незамедлительно удалим ее. Файлы для обмена на трекере предоставлены пользователями сайта, и администрация не несет ответственности за их содержание. Просьба не заливать файлы, защищенные авторскими правами, а также файлы нелегального содержания!

Искали программы, игры, дополнения, музыка mp3, аниме, аудио книги, журналы? Добро пожаловать на свободный торрент трекер Torrents, у нас можно скачать бесплатно, без смс и регистрации и прочих ограничений лучшие, отборные сборки программ, игр. Скачать торрентом не составит труда даже не опытному пользователю. Раздачи ежедневно обновляются, только лучшие и качественные раздачи, подробные описания и скриншоты. Огромная коллекция программ для работы со звуком, графикой, дизайном, а так же множество плагинов и инструментов к ним с подробной инструкцией и рекомендациями. Прошивки для навигаторов, карты. Разнообразные игры, для Windows, Linux. В коллекцие есть и старые игры любых жанров, Rpg, Action, Shooter, strategy Множество дополнений, модификаций, сценариев для популярных игр в жанре экш, рпг, гонки, стратегии, логические игры. Множество аддонов и сценариев для Microsoft Flight Simulator Большая коллекция книг, учебников. Если нет возможности купить печатное издание - смело скачивайте цифровую версию книги или, быть может, журнала. Не любите читать - можно загрузить бесплатно аудикнигу. Для веб дизайнеров и программистов так же найдется множество специализированного софта, таких как: редакторы с подсветкой, среды программирования, компоненты, системы управления базами данных, разнообразные скрипты и шаблоны. Не так давно у нас появился материал для автолюбителей и владельцев мото - оригинальные и неоригинальные каталоги запчастей, книги и журналы по ремонту и обслуживанию, видеоуроки, статьи по чип тюнингу, прошивкам. Процедура получения контента элементарная, достаточно просто скачать торрент файл и добавить его в загрузку в вашем торрент клиенте. Если у вас нет специального торрент клиента, вы можете его скачать у нас.