Дарья - Когда Же Колледж? / Daria - Is It College Yet? (Karen Disher) [2002, Animation, DVDRip] 

Цитировать
Дарья - Когда Же Колледж? / Daria - Is It College Yet?
Год выпуска: 2002
Страна: США
Жанр: Animation
Продолжительность: 66 минут
Перевод: Профессиональный (многоголосый, закадровый)
Русские субтитры: нет
Режиссер: Karen Disher
В ролях: Rachel Anton (as (voice)), Brett Barsky (as (voice)), Corey Block (as (voice)), Cindy E. Brolsma (as (voice)), Joseph Buoye (as (voice)), Sarah Drew (as Stacy Rowe (voice)), Bart Fasbender (as Andrew Landon (voice)), Amanda Fox (as Katherine 'Kay' Sloane (voice)), Maggie Fredric (as (voice) (as Maggie Frederic)), Amy Goldman (as (voice)), Alvaro J. Gonzalez (as Trent Lane (voice)), Tracy Grandstaff (as Daria Morgendorffer (voice)), Russell Hankin (as Thomas 'Tom' Sloane (voice)), Wendy Hoopes (as Jane Lane, Helen Barksdale Morgendorffer, Quinn Morgendorffer (voice)), Steven Huppert (as Joey (voice))
Описание: После окончания "Бивиса и Бадхеда" его создатели решили взять оттуда героиню, которая играла там второстепенную роль, и создать про нее отдельный сериал под названием "Дарья" про умную, саркастичную и циничную старшеклассницу стандартной американской школы, в которой большая часть школьников - это безмозглые подростки, которые заботятся только о своей внешности и собственной популярности. К тому же ее собственная сестра Квин, которая на полтора года младше Дарьи, сама является "Мисс популярность" и постоянно ходит на свидания. Дарья случайно знакомится с абстрактной художницей Джейн, которая разделяет большинство ее взглядов на жизнь. Они становятся лучшими подругами и вместе начинают переживать школьные и внешкольные приключения в этом больном, безумном мире.
Фильм показывает что происходит с персонажами сериала перед колледжем.
Доп. информация: Эта полнометражка идет после окончания 5-го сезона и является окочанием всего сериала.
Качество: DVDRip
Формат: AVI
Видео кодек: XviD
Аудио кодек: MP3
Видео: Xvid 512x384 23.976fps
Аудио: MP3 48000Hz stereo 128kbps

Скриншоты

MediaInfo

General
Format : AVI
Format/Info : Audio Video Interleave
Format profile : OpenDML
Format settings : rec
File size : 694 MiB
Duration : 1 h 5 min
Overall bit rate : 1 472 kb/s
Writing application : AVI-Mux GUI 1.17.6, May 28 2006 15:53:35
Video
ID : 0
Format : MPEG-4 Visual
Format profile : Advanced Simple@L5
Format settings, BVOP : 2
Format settings, QPel : Yes
Format settings, GMC : No warppoints
Format settings, Matrix : Default (H.263)
Muxing mode : Packed bitstream
Codec ID : XVID
Codec ID/Hint : XviD
Duration : 1 h 5 min
Bit rate : 1 340 kb/s
Width : 512 pixels
Height : 384 pixels
Display aspect ratio : 4:3
Frame rate : 23.976 (24000/1001) FPS
Color space : YUV
Chroma subsampling : 4:2:0
Bit depth : 8 bits
Scan type : Progressive
Compression mode : Lossy
Bits/(Pixel*Frame) : 0.284
Stream size : 632 MiB (91%)
Writing library : XviD 1.0.2 (UTC 2004-08-29)
Audio
ID : 1
Format : MPEG Audio
Format version : Version 1
Format profile : Layer 3
Mode : Joint stereo
Mode extension : MS Stereo
Codec ID : 55
Codec ID/Hint : MP3
Duration : 1 h 5 min
Bit rate mode : Constant
Bit rate : 128 kb/s
Channel(s) : 2 channels
Sampling rate : 48.0 kHz
Compression mode : Lossy
Stream size : 60.4 MiB (9%)
Alignment : Aligned on interleaves
Interleave, duration : 610 ms (14.63 video frames)
Interleave, preload duration : 216 ms
Title : RUS
-Спасибо MIFAL за предоставленный мультфильм
Вы не можете начинать темы
Вы не можете отвечать на сообщения
Вы не можете редактировать свои сообщения
Вы не можете удалять свои сообщения
Вы не можете голосовать в опросах
Вы не можете прикреплять файлы к сообщениям
Вы можете скачивать файлы
!ВНИМАНИЕ!

Сайт не предоставляет электронные версии произведений, а занимается лишь коллекционированием и каталогизацией ссылок, присылаемых и публикуемых на форуме нашими читателями. Если вы являетесь правообладателем какого-либо представленного материала и не желаете, чтобы ссылка на него находилась в нашем каталоге, свяжитесь с нами, и мы незамедлительно удалим ее. Файлы для обмена на трекере предоставлены пользователями сайта, и администрация не несет ответственности за их содержание. Просьба не заливать файлы, защищенные авторскими правами, а также файлы нелегального содержания!

Искали программы, игры, дополнения, музыка mp3, аниме, аудио книги, журналы? Добро пожаловать на свободный торрент трекер Torrents, у нас можно скачать бесплатно, без смс и регистрации и прочих ограничений лучшие, отборные сборки программ, игр. Скачать торрентом не составит труда даже не опытному пользователю. Раздачи ежедневно обновляются, только лучшие и качественные раздачи, подробные описания и скриншоты. Огромная коллекция программ для работы со звуком, графикой, дизайном, а так же множество плагинов и инструментов к ним с подробной инструкцией и рекомендациями. Прошивки для навигаторов, карты. Разнообразные игры, для Windows, Linux. В коллекцие есть и старые игры любых жанров, Rpg, Action, Shooter, strategy Множество дополнений, модификаций, сценариев для популярных игр в жанре экш, рпг, гонки, стратегии, логические игры. Множество аддонов и сценариев для Microsoft Flight Simulator Большая коллекция книг, учебников. Если нет возможности купить печатное издание - смело скачивайте цифровую версию книги или, быть может, журнала. Не любите читать - можно загрузить бесплатно аудикнигу. Для веб дизайнеров и программистов так же найдется множество специализированного софта, таких как: редакторы с подсветкой, среды программирования, компоненты, системы управления базами данных, разнообразные скрипты и шаблоны. Не так давно у нас появился материал для автолюбителей и владельцев мото - оригинальные и неоригинальные каталоги запчастей, книги и журналы по ремонту и обслуживанию, видеоуроки, статьи по чип тюнингу, прошивкам. Процедура получения контента элементарная, достаточно просто скачать торрент файл и добавить его в загрузку в вашем торрент клиенте. Если у вас нет специального торрент клиента, вы можете его скачать у нас.